BitTorrentTracker PerecTracker.org
BitTorrentTracker PerecTracker.org
    
Регистрация  ·  Вход
 
 · 
Забыли пароль?

  • Превратности любви / Времена любви / Climats / Seasons of Love (Каролин Юппер / Caroline Huppert) [2011, Франция, драма, экранизация, DVB] MVO (СВ-Дубль) + Original (Fre) + Sub (Rus, Eng, Fre, Deu)

    Ответить на тему
     
    Автор Сообщение

    Light

    Создавать темы 12-Авг-2015 13:08

           

    [Цитировать]

    Превратности любви
    Climats-Страна: Франция
    Жанр: драма, экранизация
    Год выпуска: 2011
    Продолжительность: 01:44:03Перевод: Профессиональный (многоголосый закадровый) Студия "СВ-Дубль" по заказу ГТРК "Культура"; русские субтитры Е.Маньен, Éclair Group
    Cубтитры: русские, английские, французские, немецкие, нидерландские, румынские
    Оригинальная аудиодорожка: французский
    Режиссер: Каролин Юппер / Caroline Huppert
    В ролях: Янник Ренье / Yannick Renier (Philippe Marcenat), Рафаэлль Агоге / Raphaëlle Agogué (Odile Malet), Людмила Микаэль / Ludmila Mikaël (Tante Cora), Маша Мериль / Macha Méril (Henriette Marcenat), Станислас Мерар / Stanislas Merhar (François Crozant)
    Описание: По психологическому роману Андре Моруа / André Maurois "Превратности любви / Climats" (1928).
    Франция 30-е годы XX века. Филипп Марсена женится на Одиль, очаровательной, но небогатой девушке. Филипп окружает любимую заботой. Их семейная жизнь протекает гладко и безоблачно, даже, несмотря на то, что мать Филиппа не слишком довольна выбором сына. Все меняется, когда Филипп начинает подозревать жену в измене…
    Доп. информация: Hot Bird (13.0°E) TV5MONDE Europe DVB-S. Русская озвучка взята с раздачи DVB.

    Качество видео: DVB
    Формат видео: DVD Video
    Видео: MPEG Video 2, 720x576@1024x576 (16:9), 25 fps, ~3223 kbps avg, 0.311 bit/pixel
    Аудио 1: MPEG Audio 2, 2 ch, 48 kHz, ~192.00 kbps avg - русский
    Аудио 2: MPEG Audio 2, 2 ch, 48 kHz, ~192.00 kbps avg - французский
    Формат субтитров: prerendered (IDX+SUB)

    MediaInfo

    Title: [apreder]Climats(2011)DVBSize: 2.67 Gb ( 2 800 816,00 KBytes ) - DVD-5Enabled regions: 1, 2, 3, 4, 5, 6, 7, 8
    VTS_01 : Play Length: 01:44:03 Video: PAL 16:9 (720x576) VBR, Auto Letterboxed Audio: Russian (MPEG1, 2 ch) Francais (MPEG1, 3 ch) Subtitles: Russian English Francais Deutsch Nederlands Romanian
    ОбщееПолное имя : F:\My Torrents 3\[apreder]Climats(2011)DVB\VIDEO_TS\VTS_01_1.VOBФормат : MPEG-PSРазмер файла : 1024 МбайтПродолжительность : 38 м.Режим общего битрейта : ПеременныйОбщий поток : 3680 Кбит/сек
    ВидеоИдентификатор : 224 (0xE0)Формат : MPEG VideoВерсия формата : Version 2Профиль формата : Main@MainПараметр BVOP формата : ДаПараметр матрицы формата : ВыборочнаяПараметр GOP формата : M=4, N=12Format_Settings_PictureStructure : FrameПродолжительность : 38 м.Вид битрейта : ПеременныйБитрейт : 3223 Кбит/секШирина : 720 пикселейВысота : 576 пикселейСоотношение сторон : 16:9Частота кадров : 25,000 кадров/секСтандарт вещания : PALЦветовое пространство : YUVСубдискретизация насыщенности : 4:2:0Битовая глубина : 8 битТип развёртки : ЧересстрочнаяПорядок развёртки : Верхнее поле первоеМетод сжатия : С потерямиБит/(Пиксели*Кадры) : 0.311Временной код первого кадра : 00:00:00:00Оригинал временного кода : Group of pictures headerРазмер потока : 897 Мбайт (88%)
    Аудио #1Идентификатор : 192 (0xC0)Формат : MPEG AudioВерсия формата : Version 1Профиль формата : Layer 2Продолжительность : 38 м.Вид битрейта : ПостоянныйБитрейт : 192 Кбит/секКаналы : 2 каналаЧастота : 48,0 КГцМетод сжатия : С потерямиРазмер потока : 53,4 Мбайт (5%)
    Аудио #2Идентификатор : 193 (0xC1)Формат : MPEG AudioВерсия формата : Version 1Профиль формата : Layer 2Режим : Joint stereoРасширение режима : Intensity Stereo + MS StereoПродолжительность : 38 м.Вид битрейта : ПостоянныйБитрейт : 192 Кбит/секКаналы : 2 каналаЧастота : 48,0 КГцМетод сжатия : С потерямиРазмер потока : 53,4 Мбайт (5%)
    Текст #1Идентификатор : 189 (0xBD)-32 (0x20)Формат : RLEФормат/Информация : Run-length encodingРежим смешивания : DVD-Video
    Текст #2Идентификатор : 189 (0xBD)-33 (0x21)Формат : RLEФормат/Информация : Run-length encodingРежим смешивания : DVD-Video
    Текст #3Идентификатор : 189 (0xBD)-34 (0x22)Формат : RLEФормат/Информация : Run-length encodingРежим смешивания : DVD-Video
    Текст #4Идентификатор : 189 (0xBD)-35 (0x23)Формат : RLEФормат/Информация : Run-length encodingРежим смешивания : DVD-Video
    Текст #5Идентификатор : 189 (0xBD)-36 (0x24)Формат : RLEФормат/Информация : Run-length encodingРежим смешивания : DVD-Video

    Скриншот c названием фильма

    Скриншоты

    Резервные скриншоты


    -[2'543]
    Скачать .torrent

    Скачать торрент-файл бесплатно и на максимальной скорости!

    Как скачивать? · Что такое торрент? · Рейтинг и ограничения

    !ВНИМАНИЕ!
    Сайт не распространяет и не хранит электронные версии произведений, а занимается лишь лишь предоставлением доступа к создаваемому пользователями каталогу ссылок на торрент-файлы, которые содержат только списки хеш-сумм, убедительная просьба с жалобами обращаться напрямую к пользователю. Файлы для обмена на трекере предоставлены пользователями сайта, и администрация не несёт ответственности за их содержание. Просьба не заливать файлы, защищенные авторскими правами, а также файлы нелегального содержания!


    _________________
    [Профиль] [ЛС]
    Показать сообщения:    
    Ответить на тему

    Текущее время: Сегодня, в 17:56

    Часовой пояс: GMT + 2



    Вы не можете начинать темы
    Вы не можете отвечать на сообщения
    Вы не можете редактировать свои сообщения
    Вы не можете удалять свои сообщения
    Вы не можете голосовать в опросах
    Вы не можете прикреплять файлы к сообщениям
    Вы не можете скачивать файлы