BitTorrentTracker PerecTracker.org
BitTorrentTracker PerecTracker.org
    
Регистрация  ·  Вход
 
 · 
Забыли пароль?

  • Лекарство / The Cure (Дэвид Гулд / David Gould) [2014, США, Новая Зеландия, Фантастика, боевик, триллер, HDRip] MVO (ТВ3) + Original Eng

    Ответить на тему
     
    Автор Сообщение

    Light

    Создавать темы 12-Авг-2015 13:08

           

    [Цитировать]

    Лекарство / The Cure
    Страна: США, Новая Зеландия
    Жанр: Фантастика, боевик, триллер
    Год выпуска: 2014
    Продолжительность: 01:29:29
    Перевод: Профессиональный (многоголосый закадровый) ТВ3
    Cубтитры: нет
    Оригинальная аудиодорожка: английский
    Режиссер: Дэвид Гулд / David Gould
    В ролях: Джино Асеведо, Давид Аллен, Чичард Андерсон, Рене Ауэр, Джон Бах, Бендж Берриман, Мелисса Билингтон, Натали Болтт
    Описание: «Лекарство» – история о поиске справедливости, который зачастую может стоить человеку жизни. Может ли один человек противостоять беспощадной системе? Посмотреть «Лекарство» онлайн мы рекомендуем всем, кто неравнодушен к общечеловеческим проблемам. Бет и Райан – молодые ученые, которые работают над созданием химиотерапевтических средств. Как известно, подобные лекарства вызывают массу побочных эффектов, но молодые люди, кажется, нашли способ значительно снизить объем негативных последствий. Они представляют свой проект Лайонелу Стентону, главе фармацевтической корпорации, в которой работают. Но того мало интересуют побочные эффекты: главное – прибыль. Под красивыми названиями он продает настоящий яд. Этот человек совершенно беспринципен и готов пойти на все что угодно ради наживы. Вот и сейчас он угрожает собственному ассистенту тюрьмой, требуя, чтобы тот пошел в обход министерства здравоохранения. Это нужно чтобы опередить конкурентов и быстрее выпустить новый продукт. А чтобы выпустить продукт, необходимо поставить эксперименты на людях.
    Сэмпл: http://multi-up.com/1062097
    Качество видео: HDRip
    Формат видео: AVI
    Видео: MPEG4, XviD, 720x400 (16:9), 23.976 fps, 1 733 Kbps (0.251 bit/pixel)
    Аудио: AC-3, 48.0 KHz, 2 ch, 192 Kbps, CBR - русский
    Аудио 2: AC-3, 48.0 KHz, 6 ch, 384 Kbps, CBR - английский

    MediaInfo

    бщее
    Полное имя : K:\Лекарство.avi
    Формат : AVI
    Формат/Информация : Audio Video Interleave
    Размер файла : 1,45 Гбайт
    Продолжительность : 1 ч. 29 м.
    Общий поток : 2323 Кбит/сек
    Название фильма : Лекарство / The Cure (2013)
    Программа кодирования : VirtualDubMod 1.5.10.2 (build 2540/release)
    Библиотека кодирования : VirtualDubMod build 2540/release
    Авторское право : miha2154
    Видео
    Идентификатор : 0
    Формат : MPEG-4 Visual
    Профиль формата : Advanced Simple@L5
    Параметр BVOP формата : 1
    Параметр QPel формата : Нет
    Параметр GMC формата : Без точки перехода
    Параметр матрицы формата : Выборочная
    Идентификатор кодека : XVID
    Идентификатор кодека/Подсказка : XviD
    Продолжительность : 1 ч. 29 м.
    Битрейт : 1733 Кбит/сек
    Ширина : 720 пикселей
    Высота : 400 пикселей
    Соотношение сторон : 16:9
    Частота кадров : 23,976 кадра/сек
    Цветовое пространство : YUV
    Субдискретизация насыщенности : 4:2:0
    Битовая глубина : 8 бит
    Тип развёртки : Прогрессивная
    Метод сжатия : С потерями
    Бит/(Пиксели*Кадры) : 0.251
    Размер потока : 1,08 Гбайт (75%)
    Библиотека кодирования : XviD 65
    Аудио #1
    Идентификатор : 1
    Формат : AC-3
    Формат/Информация : Audio Coding 3
    Расширение режима : CM (complete main)
    Параметр Endianness формата : Big
    Идентификатор кодека : 2000
    Продолжительность : 1 ч. 29 м.
    Вид битрейта : Постоянный
    Битрейт : 192 Кбит/сек
    Каналы : 2 канала
    Расположение каналов : Front: L R
    Частота : 48,0 КГц
    Метод сжатия : С потерями
    Размер потока : 123 Мбайт (8%)
    Выравнивание : Разделение по промежуткам
    Продолжительность промежутка : 42 мс. (1,00 видеокадр)
    Время предзагрузки промежутка : 500 мс.
    Заголовок : Профессиональный (многоголосый закадровый) ТВ3
    Аудио #2
    Идентификатор : 2
    Формат : AC-3
    Формат/Информация : Audio Coding 3
    Расширение режима : CM (complete main)
    Параметр Endianness формата : Big
    Идентификатор кодека : 2000
    Продолжительность : 1 ч. 29 м.
    Вид битрейта : Постоянный
    Битрейт : 384 Кбит/сек
    Каналы : 6 каналов
    Расположение каналов : Front: L C R, Side: L R, LFE
    Частота : 48,0 КГц
    Метод сжатия : С потерями
    Размер потока : 246 Мбайт (17%)
    Выравнивание : Разделение по промежуткам
    Продолжительность промежутка : 42 мс. (1,00 видеокадр)
    Время предзагрузки промежутка : 500 мс.
    Заголовок : Английский

    Скриншоты


    Сравнение

    http://perectracker.org/viewtopic.php?t=4708512 - озвучка такая же, но дуалмоно, у меня стерео; немецкая дорожка не оригинальная, у меня английская оригинальная
    http://screenshotcomparison.com/comparison/138142
    Скачать .torrent

    Скачать торрент-файл бесплатно и на максимальной скорости!

    Как скачивать? · Что такое торрент? · Рейтинг и ограничения

    !ВНИМАНИЕ!
    Сайт не распространяет и не хранит электронные версии произведений, а занимается лишь лишь предоставлением доступа к создаваемому пользователями каталогу ссылок на торрент-файлы, которые содержат только списки хеш-сумм, убедительная просьба с жалобами обращаться напрямую к пользователю. Файлы для обмена на трекере предоставлены пользователями сайта, и администрация не несёт ответственности за их содержание. Просьба не заливать файлы, защищенные авторскими правами, а также файлы нелегального содержания!


    _________________
    [Профиль] [ЛС]
    Показать сообщения:    
    Ответить на тему

    Текущее время: Сегодня, в 07:57

    Часовой пояс: GMT + 2



    Вы не можете начинать темы
    Вы не можете отвечать на сообщения
    Вы не можете редактировать свои сообщения
    Вы не можете удалять свои сообщения
    Вы не можете голосовать в опросах
    Вы не можете прикреплять файлы к сообщениям
    Вы не можете скачивать файлы