BitTorrentTracker PerecTracker.org
BitTorrentTracker PerecTracker.org
    
Регистрация  ·  Вход
 
 · 
Забыли пароль?

  • Настоящий детектив / True Detective / Сезон: 2 / Серии: 1-8 из 8 (Джастин Лин, Дэниэл Эттиэс, Мигель Сапочник) [2015, детектив, криминал, драма, HDTVRip 400p] MVO (Amedia) + Original + Subs (Rus, Eng)

    Ответить на тему
     
    Автор Сообщение

    rechyn

    Создавать темы 11-Авг-2015 13:57

           

    [Цитировать]

    ---Настоящий детектив | True Detective--• Год выпуска: 2015
    • Страна: США
    • Жанр: детектив, криминал, драма
    • Продолжительность: ~ 01:00:00-• Перевод: Профессиональный (многоголосый закадровый) | Amedia-• Режиссёр: Джастин Лин, Дэниэл Эттиэс, Янус Мец Педерсен, Мигель Сапочник-• В ролях: Колин Фаррелл, Рэйчел МакАдамс, Тейлор Китч, Винс Вон, У. Эрл Браун, Крис Керсон, К.С. Ли, Кристофер Джеймс Бэйкер, Майкл Ирби, Тимоти В. Мерфи, Адриа Архона, Миранда Рэй Майо, Келли Райлли-• Описание: Мы живем в мире, который заслуживаем. В новом сезоне культового сериала зрителей ждут новое расследование и новые герои. Мрачное убийство, произошедшее в Калифорнии объединяет четырех персонажей в исполнении Колина Фаррелла, Рэйчел МакАдамс, Тейлора Китча и Винса Вона. Они объединяются, чтобы начать охоту на таинственного убийцу и разоблачить тех, чьи приказы он выполняет.---• Качество: HDTVRip 400p
    • Формат: AVI
    • Видео: XviD, 720x400 (16:9), 23,976 fps, ~2250 kbps
    • Аудио #1: AC3, 48.0 KHz, 6 ch, 384 Kbps, CBR - Rus
    • Аудио #2: AC3, 48.0 KHz, 6 ch, 384 Kbps, CBR - Eng
    • Субтитры: Русские (амедиа), английские-

    Релиз

    исходник: 1080i HDTV DD5.1 - CtrlHD
    рип, работа со звуком, синхронизация субтитров - qqss44
    запись звука BS666
    субтитры от Амедиа

    MediaInfo

    Общее
    Формат                                   : AVI
    Формат/Информация                        : Audio Video Interleave
    Размер файла                             : 1,21 Гбайт
    Продолжительность                        : 57 м.
    Общий поток                              : 2988 Кбит/сек
    Программа кодирования                    : VirtualDubMod 1.5.10.3 | www.virtualdub-fr.org || (build 2550/release)
    Библиотека кодирования                   : VirtualDubMod build 2550/release
    Видео
    Идентификатор                            : 0
    Формат                                   : MPEG-4 Visual
    Профиль формата                          : Advanced Simple@L5
    Параметр BVOP формата                    : 2
    Параметр QPel формата                    : Нет
    Параметр GMC формата                     : Без точки перехода
    Параметр матрицы формата                 : Default (MPEG)
    Идентификатор кодека                     : XVID
    Идентификатор кодека/Подсказка           : XviD
    Продолжительность                        : 57 м.
    Битрейт                                  : 2206 Кбит/сек
    Ширина                                   : 720 пикселей
    Высота                                   : 400 пикселей
    Соотношение сторон                       : 16:9
    Частота кадров                           : 23,976 кадра/сек
    Цветовое пространство                    : YUV
    Субдискретизация насыщенности            : 4:2:0
    Битовая глубина                          : 8 бит
    Тип развёртки                            : Прогрессивная
    Метод сжатия                             : С потерями
    Бит/(Пиксели*Кадры)                      : 0.319
    Размер потока                            : 913 Мбайт (74%)
    Библиотека кодирования                   : XviD 73
    Аудио #1
    Идентификатор                            : 1
    Формат                                   : AC-3
    Формат/Информация                        : Audio Coding 3
    Расширение режима                        : CM (complete main)
    Параметр Endianness формата              : Big
    Идентификатор кодека                     : 2000
    Продолжительность                        : 57 м.
    Вид битрейта                             : Постоянный
    Битрейт                                  : 384 Кбит/сек
    Каналы                                   : 6 каналов
    Расположение каналов                     : Front: L C R, Side: L R, LFE
    Частота                                  : 48,0 КГц
    Метод сжатия                             : С потерями
    Задержка видео                           : 19 мс.
    Размер потока                            : 159 Мбайт (13%)
    Выравнивание                             : Разделение по промежуткам
    Продолжительность промежутка             : 42  мс. (1,00 видеокадр)
    Время предзагрузки промежутка            : 500  мс.
    Аудио #2
    Идентификатор                            : 2
    Формат                                   : AC-3
    Формат/Информация                        : Audio Coding 3
    Расширение режима                        : CM (complete main)
    Параметр Endianness формата              : Big
    Идентификатор кодека                     : 2000
    Продолжительность                        : 57 м.
    Вид битрейта                             : Постоянный
    Битрейт                                  : 384 Кбит/сек
    Каналы                                   : 6 каналов
    Расположение каналов                     : Front: L C R, Side: L R, LFE
    Частота                                  : 48,0 КГц
    Метод сжатия                             : С потерями
    Задержка видео                           : 19 мс.
    Размер потока                            : 159 Мбайт (13%)
    Выравнивание                             : Разделение по промежуткам
    Продолжительность промежутка             : 42  мс. (1,00 видеокадр)
    Время предзагрузки промежутка            : 500  мс.

    Скриншоты

    Раздача ведется путем добавления новых серий

    Когда раздача ведётся путём добавления новых серий, при каждом добавлении создётся новый торрент. Чтобы начать докачку новой серии, пользователям необходимо сделать следующее:
    (1) остановить скачивание,
    (2) удалить старый торрент у себя из клиента (старые серии удалять не надо),
    (3) скачать новый торрент и запустить его у себя в клиенте вместо старого, при этом указать клиенту путь в старую папку, куда и должно происходить скачивание новых серий.
    Ваш клиент при этом должен произвести хеширование (проверку) старой папки (если не производит сам - помогите ему сделать это), и будет докачивать только те серии, которых у вас ещё нет. Старые серии при этом не удаляются, а продолжают раздаваться!
    Eсли вы уже удалили старые серии, то предотвратить повторную закачку старых серий можно, отжав галочку в соответсвующих местах при запуске нового торрента. По возможности, желательно не удалять старые серии как можно дольше, чтобы релизёр не столько продолжал раздавать старые серии, а смог сконцентрироваться на новых.
    -
    Скачать .torrent

    Скачать торрент-файл бесплатно и на максимальной скорости!

    Как скачивать? · Что такое торрент? · Рейтинг и ограничения

    !ВНИМАНИЕ!
    Сайт не распространяет и не хранит электронные версии произведений, а занимается лишь лишь предоставлением доступа к создаваемому пользователями каталогу ссылок на торрент-файлы, которые содержат только списки хеш-сумм, убедительная просьба с жалобами обращаться напрямую к пользователю. Файлы для обмена на трекере предоставлены пользователями сайта, и администрация не несёт ответственности за их содержание. Просьба не заливать файлы, защищенные авторскими правами, а также файлы нелегального содержания!


    _________________
    [Профиль] [ЛС]
    Показать сообщения:    
    Ответить на тему

    Текущее время: Сегодня, в 16:39

    Часовой пояс: GMT + 2



    Вы не можете начинать темы
    Вы не можете отвечать на сообщения
    Вы не можете редактировать свои сообщения
    Вы не можете удалять свои сообщения
    Вы не можете голосовать в опросах
    Вы не можете прикреплять файлы к сообщениям
    Вы не можете скачивать файлы