BitTorrentTracker PerecTracker.org
BitTorrentTracker PerecTracker.org
    
Регистрация  ·  Вход
 
 · 
Забыли пароль?

  • Michael Jackson - Moonwalker (1988) BDRip [H.264/1080р]

    Ответить на тему
     
    Автор Сообщение

    Ermoha

    Создавать темы 09-Авг-2015 15:58

           

    [Цитировать]

    -Michael Jackson - Moonwalker (1988) BDRip [H.264/1080р] -Выпущено: США | США, MJJ Productions, Ultimate Productions
    Жанр: Фантастика, фэнтези, семейный, мюзикл
    Год выпуска: 1988
    Режиссер: Джерри Крамер, Джим Блэшфилд, Колин Чилверс
    Исполнитель: Майкл Джексон, Джо Пеши, Шон Леннон, Келли Паркер, Брэндон Квинтин Адамс, Джефф Эдкинс, Патрик Алан, Данте Баско, Дион Баско, Дженнифер Баттен
    Описание:
    Смесь видеозаписей живых концертов Майкла Джексона и ряда художественных сцен с ним, как главным героем. Сюда вошли некоторые из лучших видеоклипов Майкла, отснятых во время мирового турне с альбомом «Bad», а также видео «Smooth Criminal» с сюжетной линией в стиле «фэнтези».
    Продолжительность: 01:32:49
    Качество видео: BDRip (1080р)
    Контейнер: MKV
    Битрейт видео: ~19,8 Mbps, (16:9), 1920x1080р, 23,976 fps, High Profile 4.1
    Видеокодек: MPEG-4 AVC
    Аудиокодек: DTS
    Аудио: DTS 5.1, 1509 kbps, 48 kHz, 24 бит
    Субтитры: Русские, Английские
    Семпл

    MediaInfo

    Формат : Matroska
    Версия формата : Version 4 / Version 2
    Размер файла : 13,8 Гбайт
    Продолжительность : 1 ч. 32 м.
    Общий поток : 21,3 Мбит/сек
    Дата кодирования : UTC 2013-08-26 05:45:38
    Программа кодирования : mkvmerge v6.3.0 ('You can't stop me!') built on Jul 19 2013 16:27:38
    Библиотека кодирования : libebml v1.3.0 + libmatroska v1.4.1
    Видео
    Идентификатор : 1
    Формат : AVC
    Формат/Информация : Advanced Video Codec
    Профиль формата : [url=mailto:High@L4.1]High@L4.1[/url]
    Параметр CABAC формата : Да
    Параметр ReFrames формата : 4 кадра
    Идентификатор кодека : V_MPEG4/ISO/AVC
    Продолжительность : 1 ч. 32 м.
    Битрейт : 19,8 Мбит/сек
    Ширина : 1920 пикселей
    Высота : 1080 пикселей
    Соотношение сторон : 16:9
    Режим частоты кадров : Постоянный
    Частота кадров : 23,976 кадра/сек
    Цветовое пространство : YUV
    Субдискретизация насыщенности : 4:2:0
    Битовая глубина : 8 бит
    Тип развёртки : Прогрессивная
    Бит/(Пиксели*Кадры) : 0.397
    Размер потока : 12,5 Гбайт (91%)
    Библиотека кодирования : x264 core 133 r2334 a3ac64b
    Настройки программы : cabac=1 / ref=4 / deblock=1:-3:-3 / analyse=0x3:0x133 / me=umh / subme=10 / psy=1 / psy_rd=1.00:0.15 / mixed_ref=1 / me_range=30 / chroma_me=1 / trellis=2 / 8x8dct=1 / cqm=0 / deadzone=21,11 / fast_pskip=0 / chroma_qp_offset=-3 / threads=12 / lookahead_threads=2 / sliced_threads=0 / nr=0 / decimate=1 / interlaced=0 / bluray_compat=0 / constrained_intra=0 / bframes=8 / b_pyramid=2 / b_adapt=2 / b_bias=0 / direct=3 / weightb=1 / open_gop=0 / weightp=2 / keyint=240 / keyint_min=23 / scenecut=40 / intra_refresh=0 / rc_lookahead=40 / rc=2pass / mbtree=1 / bitrate=19750 / ratetol=1.0 / qcomp=0.60 / qpmin=0 / qpmax=69 / qpstep=4 / cplxblur=20.0 / qblur=0.5 / ip_ratio=1.40 / aq=1:1.00
    Язык : English
    Default : Да
    Forced : Нет
    Аудио
    Идентификатор : 2
    Формат : DTS
    Формат/Информация : Digital Theater Systems
    Режим : 16
    Параметр Endianness формата : Big
    Идентификатор кодека : A_DTS
    Продолжительность : 1 ч. 32 м.
    Вид битрейта : Постоянный
    Битрейт : 1509 Кбит/сек
    Каналы : 6 каналов
    Расположение каналов : Front: L C R, Side: L R, LFE
    Частота : 48,0 КГц
    Битовая глубина : 24 бит
    Метод сжатия : С потерями
    Размер потока : 1002 Мбайт (7%)
    Язык : English
    Default : Да
    Forced : Нет
    Текст #1
    Идентификатор : 3
    Формат : PGS
    Режим смешивания : zlib
    Идентификатор кодека : S_HDMV/PGS
    Default : Да
    Forced : Нет
    Текст #2
    Идентификатор : 4
    Формат : PGS
    Режим смешивания : zlib
    Идентификатор кодека : S_HDMV/PGS
    Default : Нет
    Forced : Нет
    Скриншоты:
    Michael Jackson: Moonwalker
    Время раздачи: 24/7
    Скачать .torrent

    Скачать торрент-файл бесплатно и на максимальной скорости!

    Как скачивать? · Что такое торрент? · Рейтинг и ограничения

    !ВНИМАНИЕ!
    Сайт не распространяет и не хранит электронные версии произведений, а занимается лишь лишь предоставлением доступа к создаваемому пользователями каталогу ссылок на торрент-файлы, которые содержат только списки хеш-сумм, убедительная просьба с жалобами обращаться напрямую к пользователю. Файлы для обмена на трекере предоставлены пользователями сайта, и администрация не несёт ответственности за их содержание. Просьба не заливать файлы, защищенные авторскими правами, а также файлы нелегального содержания!

    [Профиль] [ЛС]
    Показать сообщения:    
    Ответить на тему

    Текущее время: Сегодня, в 16:23

    Часовой пояс: GMT + 2



    Вы не можете начинать темы
    Вы не можете отвечать на сообщения
    Вы не можете редактировать свои сообщения
    Вы не можете удалять свои сообщения
    Вы не можете голосовать в опросах
    Вы не можете прикреплять файлы к сообщениям
    Вы не можете скачивать файлы