BitTorrentTracker PerecTracker.org
BitTorrentTracker PerecTracker.org
    
Регистрация  ·  Вход
 
 · 
Забыли пароль?

  • Вакансия на жертву / Vacancy (2007) BDRip 1080p

    Ответить на тему
     
    Автор Сообщение

    Ermoha

    Создавать темы 09-Авг-2015 15:31

           

    [Цитировать]

    Название: Вакансия на жертву
    Оригинальное название: Vacancy
    Год выпуска: 2007
    Страна: США
    Жанр: ужасы, триллер
    Продолжительность: 01:25:06
    Перевод: дублированный, авторский
    Режиссёр: Нимрод Антал
    В ролях: Кейт Бекинсейл, Люк Уилсон, Фрэнк Уэйли, Итэн Эмбри, Скотт Дж. Андерсон, Марк Каселла, Дэвид Доути, Норм Комптон, Кэрин Мовер, Миган Годфри, Ким Стис, Эндрю Фисцелла, Дэйл Вэддингтон Хоровиц, Эрнест Мишко, Брайан Росс, Чевон Хикс, Чак Ламб, Кэри Мур, Ричи Варга
    Описание: Когда посреди пустынной дороги у Дэвида и Эмми сломалась машина, супруги были вынуждены остановиться на ночь в маленьком придорожном отеле. Просматривая кассеты, которые нашлись в номере, они с изумлением обнаружили, что эти кошмарные садистские фильмы сняты именно в той самой комнате, где они находятся. Вне себя от ужаса, они пытаются бежать, но скрытые камеры, установленные по всему отелю, фиксируют каждое их движение, и каждый их шаг становится известен тем, кто намерен сделать Дэвида и Эмми главными героями очередного фильма ужасов....

    Качество: BDRip 1080p Сравнение с исходником
    Формат: MKV
    Видео: MPEG-4 AVC, 10.6 Mбит/с, 1920x800, 23,976 кадра/с
    Аудио 1: русский, DTS, 755 kbps, 6 ch, 48 kHz [дублированный]
    Аудио 2: русский, AC3, 448 kbps, 6 ch, 48 kHz [авторский, Евгений Гаевский]
    Аудио 3: английский, DTS, 1509 kbps, 6 ch, 48 kHz [оригинал]
    Субтитры 1: русские
    Субтитры 2: английские

    Инфо-файл

    Общее
    Уникальный идентификатор : 177052556914657373680760575940300495874 (0x853315051C3A14FEBEF792753C11DC02)
    Полное имя : D:VideoВакансия на жертву.2007.BDRip.1080p.mkv
    Формат : Matroska
    Версия формата : Version 4 / Version 2
    Размер файла : 8,07 Гбайт
    Продолжительность : 1 ч. 25 м.
    Общий поток : 13,6 Мбит/сек
    Название фильма : BDRip -- STarankov
    Дата кодирования : UTC 2015-08-09 06:49:09
    Программа кодирования : mkvmerge v8.2.0 ('World of Adventure') 64bit
    Библиотека кодирования : libebml v1.3.1 + libmatroska v1.4.2
    DURATION : 01:25:06.091000000
    NUMBER_OF_FRAMES : 478696
    NUMBER_OF_BYTES : 963615048
    _STATISTICS_WRITING_APP : mkvmerge v8.2.0 ('World of Adventure') 64bit
    _STATISTICS_WRITING_DATE_UTC : 2015-08-09 06:49:09
    _STATISTICS_TAGS : BPS DURATION NUMBER_OF_FRAMES NUMBER_OF_BYTES
    Видео
    Идентификатор : 1
    Формат : AVC
    Формат/Информация : Advanced Video Codec
    Профиль формата : High@L4.1
    Параметр CABAC формата : Да
    Параметр ReFrames формата : 4 кадра
    Идентификатор кодека : V_MPEG4/ISO/AVC
    Продолжительность : 1 ч. 25 м.
    Битрейт : 10,6 Мбит/сек
    Ширина : 1920 пикселей
    Высота : 800 пикселей
    Соотношение сторон : 2,40:1
    Режим частоты кадров : Постоянный
    Частота кадров : 23,976 кадра/сек
    Цветовое пространство : YUV
    Субдискретизация насыщенности : 4:2:0
    Битовая глубина : 8 бит
    Тип развёртки : Прогрессивная
    Бит/(Пиксели*Кадры) : 0.288
    Размер потока : 6,30 Гбайт (78%)
    Библиотека кодирования : x264 core 146 r2538 121396c
    Настройки программы : cabac=1 / ref=4 / deblock=1:-1:-1 / analyse=0x3:0x113 / me=umh / subme=10 / psy=1 / psy_rd=1.00:0.15 / mixed_ref=1 / me_range=32 / chroma_me=1 / trellis=2 / 8x8dct=1 / cqm=0 / deadzone=21,11 / fast_pskip=1 / chroma_qp_offset=-3 / threads=6 / lookahead_threads=1 / sliced_threads=0 / nr=0 / decimate=1 / interlaced=0 / bluray_compat=0 / constrained_intra=0 / bframes=11 / b_pyramid=2 / b_adapt=2 / b_bias=0 / direct=1 / weightb=1 / open_gop=0 / weightp=2 / keyint=230 / keyint_min=23 / scenecut=40 / intra_refresh=0 / rc_lookahead=40 / rc=crf / mbtree=0 / crf=18.1 / qcomp=0.60 / qpmin=0 / qpmax=69 / qpstep=4 / vbv_maxrate=40000 / vbv_bufsize=50000 / crf_max=0.0 / nal_hrd=none / filler=0 / ip_ratio=1.40 / pb_ratio=1.30 / aq=1:1.00
    Язык : English
    Default : Да
    Forced : Нет
    DURATION : 01:25:06.101000000
    NUMBER_OF_FRAMES : 122424
    NUMBER_OF_BYTES : 6931357327
    _STATISTICS_WRITING_APP : mkvmerge v8.2.0 ('World of Adventure') 64bit
    _STATISTICS_WRITING_DATE_UTC : 2015-08-09 06:49:09
    _STATISTICS_TAGS : BPS DURATION NUMBER_OF_FRAMES NUMBER_OF_BYTES
    Аудио #1
    Идентификатор : 2
    Формат : DTS
    Формат/Информация : Digital Theater Systems
    Режим : 16
    Параметр Endianness формата : Big
    Идентификатор кодека : A_DTS
    Продолжительность : 1 ч. 25 м.
    Вид битрейта : Постоянный
    Битрейт : 755 Кбит/сек
    Каналы : 6 каналов
    Расположение каналов : Front: L C R, Side: L R, LFE
    Частота : 48,0 КГц
    Битовая глубина : 24 бит
    Метод сжатия : С потерями
    Размер потока : 459 Мбайт (6%)
    Заголовок : DUB
    Язык : Russian
    Default : Да
    Forced : Нет
    Аудио #2
    Идентификатор : 3
    Формат : AC-3
    Формат/Информация : Audio Coding 3
    Расширение режима : CM (complete main)
    Параметр Endianness формата : Big
    Идентификатор кодека : A_AC3
    Продолжительность : 1 ч. 25 м.
    Вид битрейта : Постоянный
    Битрейт : 448 Кбит/сек
    Каналы : 6 каналов
    Расположение каналов : Front: L C R, Side: L R, LFE
    Частота : 48,0 КГц
    Метод сжатия : С потерями
    Размер потока : 273 Мбайт (3%)
    Заголовок : AVO (Евгений Гаевский)
    Язык : Russian
    Default : Нет
    Forced : Нет
    Аудио #3
    Идентификатор : 4
    Формат : DTS
    Формат/Информация : Digital Theater Systems
    Режим : 16
    Параметр Endianness формата : Big
    Идентификатор кодека : A_DTS
    Продолжительность : 1 ч. 25 м.
    Вид битрейта : Постоянный
    Битрейт : 1510 Кбит/сек
    Каналы : 6 каналов
    Расположение каналов : Front: L C R, Side: L R, LFE
    Частота : 48,0 КГц
    Битовая глубина : 24 бит
    Метод сжатия : С потерями
    Размер потока : 919 Мбайт (11%)
    Заголовок : Original
    Язык : English
    Default : Нет
    Forced : Нет
    Текст #1
    Идентификатор : 5
    Формат : UTF-8
    Идентификатор кодека : S_TEXT/UTF8
    Идентификатор кодека/Информация : UTF-8 Plain Text
    Заголовок : русский
    Язык : Russian
    Default : Нет
    Forced : Нет
    Текст #2
    Идентификатор : 6
    Формат : UTF-8
    Идентификатор кодека : S_TEXT/UTF8
    Идентификатор кодека/Информация : UTF-8 Plain Text
    Заголовок : английский
    Default : Нет
    Forced : Нет

    Скриншоты

    Скачать .torrent

    Скачать торрент-файл бесплатно и на максимальной скорости!

    Как скачивать? · Что такое торрент? · Рейтинг и ограничения

    !ВНИМАНИЕ!
    Сайт не распространяет и не хранит электронные версии произведений, а занимается лишь лишь предоставлением доступа к создаваемому пользователями каталогу ссылок на торрент-файлы, которые содержат только списки хеш-сумм, убедительная просьба с жалобами обращаться напрямую к пользователю. Файлы для обмена на трекере предоставлены пользователями сайта, и администрация не несёт ответственности за их содержание. Просьба не заливать файлы, защищенные авторскими правами, а также файлы нелегального содержания!

    [Профиль] [ЛС]
    Показать сообщения:    
    Ответить на тему

    Текущее время: Сегодня, в 23:15

    Часовой пояс: GMT + 2



    Вы не можете начинать темы
    Вы не можете отвечать на сообщения
    Вы не можете редактировать свои сообщения
    Вы не можете удалять свои сообщения
    Вы не можете голосовать в опросах
    Вы не можете прикреплять файлы к сообщениям
    Вы не можете скачивать файлы