BitTorrentTracker PerecTracker.org
BitTorrentTracker PerecTracker.org
    
Регистрация  ·  Вход
 
 · 
Забыли пароль?

  • Мамочка и два трутня (Николай Экк) [1963, Комедия, короткометражный, VHSRip]

    Ответить на тему
     
    Автор Сообщение

    Light

    Создавать темы 08-Авг-2015 21:04

           

    [Цитировать]

    Мамочка и два трутня
    Жанр: Комедия, короткометражный
    Год выпуска: 1963
    Продолжительность: 00:07:18--Режиссёр: Николай Экк--В ролях: Зоя Фёдорова, Н. Дрозд, Николай Дупак, Георгий Вицин, Н. Шуйдин, Василий Меркурьев, Евгений Леонов--Описание: Новая котлетная в квартале новостроек сразу завоевала любовь горожан: образцовая чистота, хорошо кормят, цветы. Но если внимательно присмотреться к посетителям, то среди них можно увидеть и тех, кто тайком разливает по стаканам водку. Пустую посуду, как мзду за содействие, получает уборщица. В обеденный перерыв она складывает бутылки в мешок; приезжают на собственной машине её сын с женой и увозят скопившуюся тару. Два трутня с высшим образованием четыре года нигде не работают, существуя на побочные доходы мамочки.--Доп. информация: Спасибо за рип Afanas62 с кинозал.тв
    --Приглашаю вас посетить фильмографии советских актеров из этого фильма:
    Вицин Георгий Михайлович
    Меркурьев Василий Васильевич
    Леонов Евгений Павлович--Мои фильмографии советских актеров:
    -
    -Семпл: https://www.sendspace.com/file/g48wui--Качество видео: VHSRip
    Формат видео: AVI
    Видео кодек: XviD
    Аудио кодек: MP3
    Видео 742x576 (1,288) 25.00fps 1504Kbps
    Аудио: 44100Hz stereo 192Kbps 2 ch

    MediaInfo

    Общее
    Полное имя : E:\Аня\Фильмы\мамочка и два трутня 01.avi
    Формат : AVI
    Формат/Информация : Audio Video Interleave
    Размер файла : 89,1 Мбайт
    Продолжительность : 7 м. 18 с.
    Общий поток : 1704 Кбит/сек
    Видео
    Идентификатор : 0
    Формат : MPEG-4 Visual
    Профиль формата : Advanced Simple@L5
    Параметр BVOP формата : Нет
    Параметр QPel формата : Нет
    Параметр GMC формата : Без точки перехода
    Параметр матрицы формата : Default (MPEG)
    Идентификатор кодека : XVID
    Идентификатор кодека/Подсказка : XviD
    Продолжительность : 7 м. 18 с.
    Битрейт : 1505 Кбит/сек
    Ширина : 742 пикселя
    Высота : 576 пикселей
    Соотношение сторон : 1,288
    Частота кадров : 25,000 кадров/сек
    Цветовое пространство : YUV
    Субдискретизация насыщенности : 4:2:0
    Битовая глубина : 8 бит
    Тип развёртки : Прогрессивная
    Метод сжатия : С потерями
    Бит/(Пиксели*Кадры) : 0.141
    Размер потока : 78,7 Мбайт (88%)
    Библиотека кодирования : XviD 62
    Аудио
    Идентификатор : 1
    Формат : MPEG Audio
    Версия формата : Version 1
    Профиль формата : Layer 3
    Идентификатор кодека : 55
    Идентификатор кодека/Подсказка : MP3
    Продолжительность : 7 м. 18 с.
    Вид битрейта : Постоянный
    Битрейт : 192 Кбит/сек
    Каналы : 2 канала
    Частота : 44,1 КГц
    Метод сжатия : С потерями
    Размер потока : 10,0 Мбайт (11%)
    Выравнивание : Разделение по промежуткам
    Продолжительность промежутка : 80 мс. (2,00 видеокадра)

    Скриншоты




    Скачать .torrent

    Скачать торрент-файл бесплатно и на максимальной скорости!

    Как скачивать? · Что такое торрент? · Рейтинг и ограничения

    !ВНИМАНИЕ!
    Сайт не распространяет и не хранит электронные версии произведений, а занимается лишь лишь предоставлением доступа к создаваемому пользователями каталогу ссылок на торрент-файлы, которые содержат только списки хеш-сумм, убедительная просьба с жалобами обращаться напрямую к пользователю. Файлы для обмена на трекере предоставлены пользователями сайта, и администрация не несёт ответственности за их содержание. Просьба не заливать файлы, защищенные авторскими правами, а также файлы нелегального содержания!


    _________________
    [Профиль] [ЛС]
    Показать сообщения:    
    Ответить на тему

    Текущее время: Сегодня, в 03:11

    Часовой пояс: GMT + 2



    Вы не можете начинать темы
    Вы не можете отвечать на сообщения
    Вы не можете редактировать свои сообщения
    Вы не можете удалять свои сообщения
    Вы не можете голосовать в опросах
    Вы не можете прикреплять файлы к сообщениям
    Вы не можете скачивать файлы