BitTorrentTracker PerecTracker.org
BitTorrentTracker PerecTracker.org
    
Регистрация  ·  Вход
 
 · 
Забыли пароль?

  • Парад планет (Вадим Абдрашитов) [1984, Фильм-притча, DVDRip-AVC] (Полная реставрация)

    Ответить на тему
     
    Автор Сообщение

    Light

    Создавать темы 08-Авг-2015 16:52

           

    [Цитировать]

    Парад планет
    Жанр: Фильм-притча
    Год выпуска: 1984
    Продолжительность: 01:31:11
    Режиссёр: Вадим Абдрашитов
    В ролях: Олег Борисов, Сергей Шакуров, Сергей Никоненко, Александр Пашутин, Петр Зайченко, Алексей Жарков, Борис Романов, Елена Майорова, Лилия Гриценко, Марина Шиманская, Светлана Евстратова, Лидия Ежевская, Татьяна Кочемасова, Галина Шостко.
    Описание: Редкое астрономическое явление — парад планет — оказывает странное влияние на нескольких мужчин. Шестеро сорокалетних людей жили совершенно разной жизнью. Но неожиданно они вместе отправляются в удивительное путешествие: город воспоминаний, остров женщин, царство старости.
    Семпл: https://yadi.sk/i/GzqzwAfEiLUyf
    DVD5

    Качество видео: DVDRip-AVC
    Формат видео: MKV
    Видео: x264, 712х568 (757х568), 4:3, 25,000 кадров/сек, 2255 Кбит/сек, 0.223
    Аудио: AC3 Dolby Digital, 3/2 (L,C,R,l,r) + LFE ch, 448 kbps, 48 kHz

    лог

    x264 [info]: frame I:686 Avg QP:14.21 size: 68372
    x264 [info]: frame P:29682 Avg QP:17.50 size: 24133
    x264 [info]: frame B:106393 Avg QP:18.98 size: 7664

    MediaInfo

    Полное имя : K:\Парад планет (1984).mkv
    Формат : Matroska
    Версия формата : Version 2
    Размер файла : 1,76 Гбайт
    Продолжительность : 1 ч. 31 м.
    Общий поток : 2757 Кбит/сек
    Дата кодирования : UTC 2015-05-30 20:06:15
    Программа кодирования : mkvmerge v5.8.0 ('No Sleep / Pillow') built on Sep 2 2012 15:37:04
    Библиотека кодирования : libebml v1.2.3 + libmatroska v1.3.0
    Видео
    Идентификатор : 1
    Формат : AVC
    Формат/Информация : Advanced Video Codec
    Профиль формата : High@L3.1
    Параметр CABAC формата : Да
    Параметр ReFrames формата : 10 кадров
    Режим смешивания : Header stripping
    Идентификатор кодека : V_MPEG4/ISO/AVC
    Продолжительность : 1 ч. 31 м.
    Битрейт : 2255 Кбит/сек
    Ширина : 712 пикселей
    Высота : 568 пикселей
    Соотношение сторон : 4:3
    Режим частоты кадров : Постоянный
    Частота кадров : 25,000 кадров/сек
    Цветовое пространство : YUV
    Субдискретизация насыщенности : 4:2:0
    Битовая глубина : 8 бит
    Тип развёртки : Прогрессивная
    Бит/(Пиксели*Кадры) : 0.223
    Размер потока : 1,44 Гбайт (82%)
    Библиотека кодирования : x264 core 146 r2538kMod 121396c
    Настройки программы : cabac=1 / ref=10 / deblock=1:-3:-3 / analyse=0x3:0x113 / me=umh / subme=10 / psy=1 / fade_compensate=0.00 / psy_rd=1.00:0.10 / mixed_ref=1 / me_range=24 / chroma_me=1 / trellis=2 / 8x8dct=1 / cqm=0 / deadzone=21,11 / fast_pskip=1 / chroma_qp_offset=-3 / threads=4 / lookahead_threads=1 / sliced_threads=0 / nr=0 / decimate=1 / interlaced=0 / bluray_compat=0 / constrained_intra=0 / fgo=0 / bframes=8 / b_pyramid=2 / b_adapt=2 / b_bias=0 / direct=1 / weightb=1 / open_gop=0 / weightp=2 / keyint=250 / keyint_min=25 / scenecut=40 / intra_refresh=0 / rc_lookahead=60 / rc=crf / mbtree=1 / crf=18.0000 / qcomp=0.80 / qpmin=0 / qpmax=69 / qpstep=4 / ip_ratio=1.40 / aq=1:1.00
    Default : Да
    Forced : Нет
    Цветовой диапазон : Limited
    Коэффициенты матрицы : BT.601
    Аудио
    Идентификатор : 2
    Формат : AC-3
    Формат/Информация : Audio Coding 3
    Расширение режима : CM (complete main)
    Параметр Endianness формата : Big
    Режим смешивания : Header stripping
    Идентификатор кодека : A_AC3
    Продолжительность : 1 ч. 31 м.
    Вид битрейта : Постоянный
    Битрейт : 448 Кбит/сек
    Каналы : 6 каналов
    Расположение каналов : Front: L C R, Side: L R, LFE
    Частота : 48,0 КГц
    Метод сжатия : С потерями
    Задержка видео : 590 мс.
    Размер потока : 292 Мбайт (16%)
    Default : Да
    Forced : Нет

    Скриншоты

    Скачать .torrent

    Скачать торрент-файл бесплатно и на максимальной скорости!

    Как скачивать? · Что такое торрент? · Рейтинг и ограничения

    !ВНИМАНИЕ!
    Сайт не распространяет и не хранит электронные версии произведений, а занимается лишь лишь предоставлением доступа к создаваемому пользователями каталогу ссылок на торрент-файлы, которые содержат только списки хеш-сумм, убедительная просьба с жалобами обращаться напрямую к пользователю. Файлы для обмена на трекере предоставлены пользователями сайта, и администрация не несёт ответственности за их содержание. Просьба не заливать файлы, защищенные авторскими правами, а также файлы нелегального содержания!


    _________________
    [Профиль] [ЛС]
    Показать сообщения:    
    Ответить на тему

    Текущее время: Сегодня, в 23:59

    Часовой пояс: GMT + 2



    Вы не можете начинать темы
    Вы не можете отвечать на сообщения
    Вы не можете редактировать свои сообщения
    Вы не можете удалять свои сообщения
    Вы не можете голосовать в опросах
    Вы не можете прикреплять файлы к сообщениям
    Вы не можете скачивать файлы