BitTorrentTracker PerecTracker.org
BitTorrentTracker PerecTracker.org
    
Регистрация  ·  Вход
 
 · 
Забыли пароль?

  • Легенда №17 (Николай Лебедев) [2013 г., спорт, драма, биография, HDRip-AVC]

    Ответить на тему
     
    Автор Сообщение

    rechyn

    Создавать темы 08-Авг-2015 04:16

           

    [Цитировать]

    -Легенда №17--Год выпуска: 2013Жанр: спорт, драма, биографияПродолжительность: 02:13:53--Режиссер:Николай Лебедев-В ролях:Данила Козловский, Олег Меньшиков, Светлана Иванова, Владимир Меньшов, Александр Лобанов, Сергей Генкин, Роман Мадянов, Александр Яковлев, Алехандра Грепи, Борис Щербаков-Описание:
    2 сентября 1972 года. Монреаль. Хоккейная сборная СССР с разгромным счетом 7:3 победила канадских профессионалов из НХЛ в стартовом матче эпохальной Суперсерии СССР-Канада. Это была не просто игра, это была битва за свою страну, которая перевернула мировое представление о хоккее.
    Теперь весь мир знал его просто по номеру «17». Валерий Харламов, забивший в том матче 2 шайбы, мгновенно взлетел на вершину славы. Сбылась его мечта - упорство, спортивный талант и суровые уроки великого тренера Анатолия Тарасова сделали из «номера 17» легенду мирового хоккея.
    --Дополнительная информация:-
    -Сэмпл Рип совместим с бытовыми DVD-проигрывателями.--Качество видео: HDRip-AVC (Исходник: BDRip 1080p )
    Формат видео: MKV
    Видео: AVC (x264), 860x360 (9:6), 24 fps, ~1947 kbps avg, 0.262 bit/pixel
    Аудио: AC-3, 48.0 kHz, 384 Kbps, 5.1 ch, CBR-Скриншоты


    Название

    MediaInfo/log

    log

    x264 [info]: frame I:1549 Avg QP:19.39 size: 44264
    x264 [info]: frame P:49288 Avg QP:21.89 size: 16835
    x264 [info]: frame B:141968 Avg QP:22.34 size: 7444
    x264 [info]: consecutive B-frames: 3.6% 4.8% 11.5% 36.4% 15.5% 19.1% 2.8% 3.7% 1.5% 0.7% 0.3%
    x264 [info]: mb I I16..4: 4.9% 71.9% 23.3%
    x264 [info]: mb P I16..4: 2.1% 22.1% 3.9% P16..4: 27.6% 30.8% 9.5% 0.0% 0.0% skip: 4.1%
    x264 [info]: mb B I16..4: 0.4% 3.5% 0.5% B16..8: 34.3% 22.8% 4.3% direct: 8.4% skip:25.8% L0:39.2% L1:44.4% BI:16.4%
    x264 [info]: 8x8 transform intra:78.7% inter:62.3%
    x264 [info]: direct mvs spatial:98.8% temporal:1.2%
    x264 [info]: coded y,uvDC,uvAC intra: 82.3% 85.4% 59.4% inter: 32.9% 33.5% 10.8%
    x264 [info]: i16 v,h,dc,p: 18% 24% 6% 51%
    x264 [info]: i8 v,h,dc,ddl,ddr,vr,hd,vl,hu: 11% 9% 8% 9% 12% 12% 13% 11% 14%
    x264 [info]: i4 v,h,dc,ddl,ddr,vr,hd,vl,hu: 14% 12% 7% 8% 13% 12% 13% 10% 13%
    x264 [info]: i8c dc,h,v,p: 36% 28% 18% 18%
    x264 [info]: Weighted P-Frames: Y:4.7% UV:2.8%
    x264 [info]: ref P L0: 53.6% 9.5% 15.5% 6.6% 4.6% 3.2% 2.5% 1.5% 1.2% 1.0% 0.8% 0.1% 0.0%
    x264 [info]: ref B L0: 79.5% 10.5% 4.1% 2.0% 1.3% 1.0% 0.7% 0.4% 0.2% 0.1%
    x264 [info]: ref B L1: 94.6% 5.4%
    x264 [info]: kb/s:1946.95
    General
    Unique ID : 230134257315060442350339587280594883914 (0xAD223EE8C44BC9688CB5807FCD11554A)
    Complete name : \Legenda_№ 17_(2013).HDRip-AVC.ac3.[All.Films][RG].mkv
    Format : Matroska
    Format version : Version 2
    File size : 2.18 GiB
    Duration : 2h 13mn
    Overall bit rate : 2 333 Kbps
    Movie name : Легенда №17 (2013) HDRip-AVC | <VIRUS> [All.Films][RG][perectracker.org]
    Encoded date : UTC 2015-08-07 17:39:37
    Writing application : mkvmerge v7.8.0 ('River Man') 32bit built on Apr 3 2015 12:11:22
    Writing library : libebml v1.3.1 + libmatroska v1.4.2
    Video
    ID : 1
    Format : AVC
    Format/Info : Advanced Video Codec
    Format profile : High@L4.1
    Format settings, CABAC : Yes
    Format settings, ReFrames : 11 frames
    Codec ID : V_MPEG4/ISO/AVC
    Duration : 2h 13mn
    Bit rate : 1 947 Kbps
    Width : 860 pixels
    Height : 360 pixels
    Display aspect ratio : 2.40:1
    Frame rate mode : Constant
    Frame rate : 24.000 fps
    Color space : YUV
    Chroma subsampling : 4:2:0
    Bit depth : 8 bits
    Scan type : Progressive
    Bits/(Pixel*Frame) : 0.262
    Stream size : 1.78 GiB (82%)
    Writing library : x264 core 146 r2538kMod 121396c
    Encoding settings : cabac=1 / ref=11 / deblock=1:-2:-2 / analyse=0x3:0x113 / me=umh / subme=11 / psy=1 / fade_compensate=0.00 / psy_rd=0.99:0.05 / mixed_ref=1 / me_range=36 / chroma_me=1 / trellis=2 / 8x8dct=1 / cqm=0 / deadzone=21,11 / fast_pskip=0 / chroma_qp_offset=-3 / threads=6 / lookahead_threads=1 / sliced_threads=0 / nr=0 / decimate=0 / interlaced=0 / bluray_compat=0 / constrained_intra=0 / fgo=0 / bframes=10 / b_pyramid=2 / b_adapt=2 / b_bias=0 / direct=3 / weightb=1 / open_gop=0 / weightp=2 / keyint=240 / keyint_min=24 / scenecut=40 / intra_refresh=0 / rc_lookahead=60 / rc=2pass / mbtree=0 / bitrate=1947 / ratetol=1.0 / qcomp=0.60 / qpmin=10 / qpmax=51 / qpstep=4 / cplxblur=20.0 / qblur=0.5 / vbv_maxrate=50000 / vbv_bufsize=62500 / nal_hrd=none / filler=0 / ip_ratio=1.30 / pb_ratio=1.20 / aq=3:1.00 / zones=186200,192806,q=30
    Default : Yes
    Forced : No
    Audio
    ID : 2
    Format : AC-3
    Format/Info : Audio Coding 3
    Mode extension : CM (complete main)
    Format settings, Endianness : Big
    Codec ID : A_AC3
    Duration : 2h 13mn
    Bit rate mode : Constant
    Bit rate : 384 Kbps
    Channel(s) : 6 channels
    Channel positions : Front: L C R, Side: L R, LFE
    Sampling rate : 48.0 KHz
    Compression mode : Lossy
    Stream size : 368 MiB (16%)
    Language : Russian
    Default : Yes
    Forced : No
    Menu
    00:00:00.000 : :Chapter 01
    00:07:01.708 : :Chapter 02
    00:14:53.083 : :Chapter 03
    00:22:34.208 : :Chapter 04
    00:28:59.500 : :Chapter 05
    00:37:15.500 : :Chapter 06
    00:45:29.625 : :Chapter 07
    00:57:35.291 : :Chapter 08
    01:08:11.791 : :Chapter 09
    01:17:34.208 : :Chapter 10
    01:26:25.541 : :Chapter 11
    01:34:09.208 : :Chapter 12
    01:43:26.458 : :Chapter 13
    01:49:54.083 : :Chapter 14
    01:58:50.791 : :Chapter 15
    02:07:19.291 : :Chapter 16
    FAQ по просмотру MKV/h.264/AAC
  • Смогу ли я запустить AVC фильм на своём компьютере?
  • Сампл из раздачи не воспроизводится/тормозит или отсутствует звук/изображение. Что делать?
  • Что такое H.264/AVC и зачем он нужен?
  • Что за дурацкий формат .MKV?
  • Почему MKV? Чем AVI хуже?
  • Не могу переключить/включить/выключить аудио/видео дорожки и/или субтитры. Что делать?
  • Как сделать так, чтобы по умолчанию при просмотре MKV файлов нужные/ненужные субтитры были включены/выключены, и/или сразу проигрывалась дорожка на нужном мне языке?
  • Будут ли фильмы в таком формате проигрываться на бытовых плеерах без компьютера?
  • Проигрываю фильм, а картинка очень сильно отличается от скринов/бледная/перенасыщенная. Что не так?
  • Можно ли сконвертировать AVC в DVD?
  • Почему сплюснута картинка / в характеристиках видео указано два разрешения / что такое анаморфное разрешение?
  • Зачем релизёры обманывают качающих и пишут в заголовке 720p/1080p, а на самом деле раздают видеоматериалы в непонятных разрешениях?
  • Можно ли вывести многоканальный FLAC/AAC-звук на внешний ресивер?
  • У меня 2-канальная акустика/стереонаушники. При просмотре видео почти не слышно/совсем не слышно речь/разговоры, играют только фоновые звуки. Что делать?
  • У меня стоит CoreAVC версии 1.9.5 или младше. При воспроизведении картинка рассыпается на квадраты и разноцветные пятна. Кривой рип?
  • Всё прочитал(-а), решения своей проблемы не нашёл(-шла)/не смог(-ла) разобраться. Что делать?
    Скачать .torrent

    Скачать торрент-файл бесплатно и на максимальной скорости!

    Как скачивать? · Что такое торрент? · Рейтинг и ограничения

    !ВНИМАНИЕ!
    Сайт не распространяет и не хранит электронные версии произведений, а занимается лишь лишь предоставлением доступа к создаваемому пользователями каталогу ссылок на торрент-файлы, которые содержат только списки хеш-сумм, убедительная просьба с жалобами обращаться напрямую к пользователю. Файлы для обмена на трекере предоставлены пользователями сайта, и администрация не несёт ответственности за их содержание. Просьба не заливать файлы, защищенные авторскими правами, а также файлы нелегального содержания!


  • _________________
    [Профиль] [ЛС]
    Показать сообщения:    
    Ответить на тему

    Текущее время: Сегодня, в 03:09

    Часовой пояс: GMT + 2



    Вы не можете начинать темы
    Вы не можете отвечать на сообщения
    Вы не можете редактировать свои сообщения
    Вы не можете удалять свои сообщения
    Вы не можете голосовать в опросах
    Вы не можете прикреплять файлы к сообщениям
    Вы не можете скачивать файлы