BitTorrentTracker PerecTracker.org
BitTorrentTracker PerecTracker.org
    
Регистрация  ·  Вход
 
 · 
Забыли пароль?

  • Французская сюита / Suite Française (Сол Дибб / Saul Dibb) [2014, Великобритания, Франция, Канада, Бельгия, драма, мелодрама, военный, BDRip] DVO (Coldfilm)

    Ответить на тему
     
    Автор Сообщение

    Light

    Создавать темы 08-Авг-2015 04:16

           

    [Цитировать]

    Французская сюита / Suite Française
    Страна: Великобритания, Франция, Канада, Бельгия
    Жанр: драма, мелодрама, военный
    Год выпуска: 2014
    Продолжительность: 01:47:56
    Перевод: Любительский (двухголосый закадровый) Coldfilm
    Cубтитры: нет
    Режиссер: Сол Дибб / Saul Dibb
    В ролях: Мишель Уильямс, Маттиас Шонартс, Кристин Скотт Томас, Марго Робби, Эрик Годон, Дебора Файндлей, Рут Уилсон, Сэм Райли, Венсан Домс, Саймон Даттон
    Описание: В центре романтической истории времён Второй мировой войны — молодая девушка, живущая вместе со свекровью в оккупированной фашистами Франции. Нелюбимый муж ушёл на поле боя, и героиня влюбляется в немецкого офицера. Их объединяет любовь к музыке: она играет на фортепиано, а немец — бывший композитор...
    Фильм снят по одноименному роману Ирины Немировской. О романе «Французская сюита» не было известно более шестидесяти лет, поскольку в 1942 году писательницу арестовали и отправили в Освенцим, откуда она уже не вернулась. Рукопись была найдена дочерьми писательницы в её вещах. Публикация романа состоялась только в 2004 году.

    Сэмпл: http://multi-up.com/1061614
    Качество видео: BDRip (исх. Suite.Francaise.2014.1080p.BluRay.AVC.DTS-HD)
    Формат видео: AVI
    Видео: DivX, 720х304, 1730 кбит/с, 24 fps, 0.331 b/px
    Аудио: AC3, 192 кбит/с, 2 ch, 48 КГц

    MediaInfo

    Общее
    Полное имя : E:\Francuzskaja.sjuita_2014.BDRip.avi
    Формат : AVI
    Формат/Информация : Audio Video Interleave
    Размер файла : 1,46 Гбайт
    Продолжительность : 1 ч. 47 м.
    Общий поток : 1940 Кбит/сек
    Программа кодирования : VirtualDubMod 1.5.10.3 | www.virtualdub-fr.org || (build 2550/release)
    Библиотека кодирования : VirtualDubMod build 2550/release
    Видео
    Идентификатор : 0
    Формат : MPEG-4 Visual
    Профиль формата : Advanced Simple@L5
    Параметр BVOP формата : 1
    Параметр QPel формата : Нет
    Параметр GMC формата : Без точки перехода
    Параметр матрицы формата : Default (MPEG)
    Идентификатор кодека : DX50
    Идентификатор кодека/Подсказка : DivX 5
    Продолжительность : 1 ч. 47 м.
    Битрейт : 1739 Кбит/сек
    Ширина : 720 пикселей
    Высота : 304 пикселя
    Соотношение сторон : 2,35:1
    Частота кадров : 24,000 кадра/сек
    Цветовое пространство : YUV
    Субдискретизация насыщенности : 4:2:0
    Битовая глубина : 8 бит
    Тип развёртки : Прогрессивная
    Метод сжатия : С потерями
    Бит/(Пиксели*Кадры) : 0.331
    Размер потока : 1,31 Гбайт (90%)
    Библиотека кодирования : XviD 1.2.1 (UTC 2008-12-04)
    Аудио
    Идентификатор : 1
    Формат : AC-3
    Формат/Информация : Audio Coding 3
    Расширение режима : CM (complete main)
    Параметр Endianness формата : Big
    Идентификатор кодека : 2000
    Продолжительность : 1 ч. 47 м.
    Вид битрейта : Постоянный
    Битрейт : 192 Кбит/сек
    Каналы : 2 канала
    Расположение каналов : Front: L R
    Частота : 48,0 КГц
    Метод сжатия : С потерями
    Размер потока : 148 Мбайт (10%)
    Выравнивание : Разделение по промежуткам
    Продолжительность промежутка : 42 мс. (1,00 видеокадр)
    Время предзагрузки промежутка : 500 мс.

    Скриншот c названием фильма

    Скриншоты

    Скачать .torrent

    Скачать торрент-файл бесплатно и на максимальной скорости!

    Как скачивать? · Что такое торрент? · Рейтинг и ограничения

    !ВНИМАНИЕ!
    Сайт не распространяет и не хранит электронные версии произведений, а занимается лишь лишь предоставлением доступа к создаваемому пользователями каталогу ссылок на торрент-файлы, которые содержат только списки хеш-сумм, убедительная просьба с жалобами обращаться напрямую к пользователю. Файлы для обмена на трекере предоставлены пользователями сайта, и администрация не несёт ответственности за их содержание. Просьба не заливать файлы, защищенные авторскими правами, а также файлы нелегального содержания!


    _________________
    [Профиль] [ЛС]
    Показать сообщения:    
    Ответить на тему

    Текущее время: Сегодня, в 12:22

    Часовой пояс: GMT + 2



    Вы не можете начинать темы
    Вы не можете отвечать на сообщения
    Вы не можете редактировать свои сообщения
    Вы не можете удалять свои сообщения
    Вы не можете голосовать в опросах
    Вы не можете прикреплять файлы к сообщениям
    Вы не можете скачивать файлы