BitTorrentTracker PerecTracker.org
BitTorrentTracker PerecTracker.org
    
Регистрация  ·  Вход
 
 · 
Забыли пароль?

  • Виноваты звезды / The Fault in Our Stars (Джош Бун / Josh Boone) [2014, США, драма, мелодрама, BDRip] [Extended Cut] Dub

    Ответить на тему
     
    Автор Сообщение

    Light

    Создавать темы 07-Авг-2015 21:04

           

    [Цитировать]

    Виноваты звезды / The Fault in Our Stars / Extended Cut
    Страна: США
    Жанр: драма, мелодрама
    Год выпуска: 2014
    Продолжительность: 02:12:53
    Перевод: Профессиональный (дублированный)
    Cубтитры: нет
    Оригинальная аудиодорожка: нет
    Режиссер: Джош Бун / Josh Boone
    В ролях: Шейлин Вудли, Энсел Элгорт, Нат Вулф, Лора Дерн, Сэм Трэммелл, Уиллем Дефо, Лотте Вербеек, Ана Дела Крус, Рэнди Ковиц, Тони Саладна и др.
    Описание: Хэйзел больна раком. Несмотря на то, что болезнь временно отступила, девушка не чувствует ни капли радости. Она ходит в группу поддержки, где однажды знакомится с Огастусом Уотерсом и моментально влюбляется в него. Огастус и Хэйзел отправляются в полное страсти и жизни путешествие, которое лишний раз покажет им, что весь смысл жизни можно найти в любом ее отрезке.
    Сэмпл: http://sendfile.su/1143952
    Качество видео: BDRip (источник: HDClub / Blu-ray / 1080p)
    Формат видео: AVI
    Автор рипа: sociolog_melvas
    Видео: 704x384 (1.76:1), 23,976 fps, XviD build 65 ~1896 kbps avg, 0.29 bit/pixel
    Аудио: 48 kHz, AC3 Dolby Digital, 3/2 (L,C,R,l,r) + LFE ch, ~448 kbps avg

    MediaInfo

    Общее
    Полное имя : D:\Видео\Фильмы\Vinovaty.zvezdy.EC.2014.RUS.BDRip.XviD.AC3.-HQCLUB.avi
    Формат : AVI
    Формат/Информация : Audio Video Interleave
    Профиль формата : OpenDML
    Размер файла : 2,18 Гбайт
    Продолжительность : 2 ч. 12 м.
    Общий поток : 2351 Кбит/сек
    Название фильма : Виноваты звезды / The Fault in Our Stars [Extended Cut] (2014) BDRip
    Режиссёр : sociolog_melvas
    Жанр : драма, мелодрама
    Программа кодирования : VirtualDubMod 1.5.10.2 (build 2540/release)
    Примечание : 22.09.2014
    Видео
    Идентификатор : 0
    Формат : MPEG-4 Visual
    Профиль формата : Advanced Simple@L5
    Параметр BVOP формата : 1
    Параметр QPel формата : Нет
    Параметр GMC формата : Без точки перехода
    Параметр матрицы формата : Выборочная
    Идентификатор кодека : XVID
    Идентификатор кодека/Подсказка : XviD
    Продолжительность : 2 ч. 12 м.
    Битрейт : 1891 Кбит/сек
    Ширина : 704 пикселя
    Высота : 384 пикселя
    Соотношение сторон : 1,85:1
    Частота кадров : 23,976 кадра/сек
    Цветовое пространство : YUV
    Субдискретизация насыщенности : 4:2:0
    Битовая глубина : 8 бит
    Тип развёртки : Прогрессивная
    Метод сжатия : С потерями
    Бит/(Пиксели*Кадры) : 0.292
    Размер потока : 1,76 Гбайт (80%)
    Библиотека кодирования : XviD 65
    Аудио
    Идентификатор : 1
    Формат : AC-3
    Формат/Информация : Audio Coding 3
    Расширение режима : CM (complete main)
    Параметр Endianness формата : Big
    Идентификатор кодека : 2000
    Продолжительность : 2 ч. 12 м.
    Вид битрейта : Постоянный
    Битрейт : 448 Кбит/сек
    Каналы : 6 каналов
    Расположение каналов : Front: L C R, Side: L R, LFE
    Частота : 48,0 КГц
    Метод сжатия : С потерями
    Размер потока : 426 Мбайт (19%)
    Выравнивание : Разделение по промежуткам
    Продолжительность промежутка : 42 мс. (1,00 видеокадр)
    Время предзагрузки промежутка : 500 мс.

    Скриншоты

    Скачать .torrent

    Скачать торрент-файл бесплатно и на максимальной скорости!

    Как скачивать? · Что такое торрент? · Рейтинг и ограничения

    !ВНИМАНИЕ!
    Сайт не распространяет и не хранит электронные версии произведений, а занимается лишь лишь предоставлением доступа к создаваемому пользователями каталогу ссылок на торрент-файлы, которые содержат только списки хеш-сумм, убедительная просьба с жалобами обращаться напрямую к пользователю. Файлы для обмена на трекере предоставлены пользователями сайта, и администрация не несёт ответственности за их содержание. Просьба не заливать файлы, защищенные авторскими правами, а также файлы нелегального содержания!


    _________________
    [Профиль] [ЛС]
    Показать сообщения:    
    Ответить на тему

    Текущее время: Сегодня, в 16:41

    Часовой пояс: GMT + 2



    Вы не можете начинать темы
    Вы не можете отвечать на сообщения
    Вы не можете редактировать свои сообщения
    Вы не можете удалять свои сообщения
    Вы не можете голосовать в опросах
    Вы не можете прикреплять файлы к сообщениям
    Вы не можете скачивать файлы