BitTorrentTracker PerecTracker.org
BitTorrentTracker PerecTracker.org
    
Регистрация  ·  Вход
 
 · 
Забыли пароль?

  • Царство красоты / Le règne de la beauté (Дени Аркан / Denys Arcand ) [2014, Канада, Драма, BDRip, HD (720p)] MVO + Original + sub (eng, fra)

    Ответить на тему
     
    Автор Сообщение

    rechyn

    Создавать темы 07-Авг-2015 21:04

           

    [Цитировать]

    Царство красоты / Le règne de la beauté
    -
    5.323 / 10 5.50 / 10
    -Год выпуска: 2014
    Страна: Канада
    Жанр: Драма
    Продолжительность: 01:41:59
    Перевод: Профессиональный (многоголосый закадровый)
    Оригинальная аудиодорожка: Есть
    Cубтитры: Английские, Французские
    Режиссёр: Дени Аркан
    Сценарий: Дени Аркан, Валери Богран-Шампань
    Продюсер: Дэниэл Луис, Дениз Робер, Андреа Пуг
    Оператор: Натали Молявко-Высоцки
    Композитор: Pierre-Philippe Côté
    Художник: Патрис Бенгл, Мари-Шантейл Вэйллэнкорт, Джим Лэмби
    Монтаж: Изабель Дидье
    В ролях: Эрик Брунэо, Мелани Тьерри, Мелани Меркоски, Мари-Жозе Кроз, Мэтью Куэснел, Мишель Форге, Женевьева Буавен-Русси, Мэгали Лепин Блондо, Ив Жак, Хуана Акоста
    Сборы в России: $40 130
    Мировая премьера: 15 мая 2014
    Премьера (РФ): 5 марта 2015, «Русский Репортаж»
    Описание: Люк — блестящий молодой архитектор, чей талант еще не признали. Он живет спокойной жизнью с женой Стефани. Жизнь Люка кажется идеальной, но однажды на симпозиуме в Торонто, он встречает таинственную женщину, которая изменит его жизнь…-Качество исходника: BDRemux (HDClub)
    Качество: BDRip
    Тип: HD (720p)
    Контейнер: M4V
    Видео: H.264, 1280x688, 1.85:1, 3 500 Kbps, 23.976 fps
    Аудио 1: Русский/Профессиональный (многоголосый закадровый) , AAC / 2.0 / 156 Kbps / 48.0 KHz
    Аудио 2: Французский/Оригинальная дорожка , AAC / 2.0 / 157 Kbps / 48.0 KHz
    Аудио 3: Русский/Профессиональный (многоголосый закадровый) , AC-3 / 5.1 / 640 Kbps / 48.0 KHz
    Аудио 4: Французский/Оригинальная дорожка , AC-3 / 5.1 / 640 Kbps / 48.0 KHz
    Субтитры 1: Английские полные
    Субтитры 2: Французские полные
    -

    iTunes Meta Tags

    Sort Name: règne de la beauté
    XID: Apple:vendor_id:2014-710572
    contentID: 920341089
    Copyright: © 2014 Les Films Séville Inc. Tous droits réservés.
    Screenwriters: Дени Аркан, Валери Богран-Шампань
    Producers: Дэниэл Луис, Дениз Робер, Андреа Пуг
    Director: Дени Аркан
    Cast: Эрик Брунэо, Мелани Тьерри, Мелани Меркоски, Мари-Жозе Кроз, Мэтью Куэснел, Мишель Форге, Женевьева Буавен-Русси, Мэгали Лепин Блондо, Ив Жак, Хуана Акоста
    Studio: Les Films Séville
    Rating: 43
    Long Description: Люк - блестящий молодой архитектор, чей талант еще не признали. Он живет спокойной жизнью с женой Стефани. Жизнь Люка кажется идеальной, но однажды на симпозиуме в Торонто, он встречает таинственную женщину, которая изменит его жизнь...
    Description: Люк - блестящий молодой архитектор, чей талант еще не признали. Он живет спокойной жизнью с женой Стефани. Жизнь Люка кажется идеальной, но однажды на симпозиуме в Торонто, он встречает таинственную женщину, которая изменит его жизнь...
    Release Date: 2014-05-15T08:00:00Z
    Genre: Drama
    Artist: Denys Arcand
    Name: Le règne de la beauté

    MediaInfo

    General
    Complete name                            : /Users/imac/HandBrake/Kingdom of Beauty (720p HD)m4v.m4v
    Format                                   : MPEG-4
    Codec ID                                 : M4V
    File size                                : 3.63 GiB
    Duration                                 : 1h 41mn
    Overall bit rate mode                    : Variable
    Overall bit rate                         : 5 094 Kbps
    Movie name                               : Le règne de la beauté
    Performer                                : Denys Arcand
    Genre                                    : Drama
    Recorded date                            : UTC 2014-05-15 08:00:00
    Encoded date                             : UTC 2015-08-07 11:51:56
    Tagged date                              : UTC 2015-08-07 12:00:13
    Copyright                                : © 2014 Les Films Séville Inc. Tous droits réservés.
    Cover                                    : Yes
    sonm                                     : règne de la beauté
    desc                                     : Люк - блестящий молодой архитектор, чей талант еще не признали. Он живет спокойной жизнью с женой Стефани. Жизнь Люка кажется идеальной, но однажды на симпозиуме в Торонто, он встречает таинственную женщину, которая изменит его жизнь...
    ldes                                     : Люк - блестящий молодой архитектор, чей талант еще не признали. Он живет спокойной жизнью с женой Стефани. Жизнь Люка кажется идеальной, но однажды на симпозиуме в Торонто, он встречает таинственную женщину, которая изменит его жизнь...
    hdvd                                     : 1
    stik                                     : 9
    rtng                                     : 0
    cnID                                     : 920341089
    xid                                      : Apple:vendor_id:2014-710572
    iTunEXTC                                 : ca-movie|18A|350|
    iTunMOVI                                 : <?xml version=\"1.0\" encoding=\"UTF-8\"?> / <!DOCTYPE plist PUBLIC \"-//Apple//DTD PLIST 1.0//EN\" \"http://anonym.to/?http://www.apple.com/DTDs/PropertyList-1.0.dtd\"> / <plist version=\"1.0\"> / <dict> /  <key>cast</key> /  <array> /   <dict> /    <key>name</key> /    <string>Эрик Брунэо</string> /   </dict> /   <dict> /    <key>name</key> /    <string>Мелани Тьерри</string> /   </dict> /   <dict> /    <key>name</key> /    <string>Мелани Меркоски</string> /   </dict> /   <dict> /    <key>name</key> /    <string>Мари-Жозе Кроз</string> /   </dict> /   <dict> /    <key>name</key> /    <string>Мэтью Куэснел</string> /   </dict> /   <dict> /    <key>name</key> /    <string>Мишель Форге</string> /   </dict> /   <dict> /    <key>name</key> /    <string>Женевьева Буавен-Русси</string> /   </dict> /   <dict> /    <key>name</key> /    <string>Мэгали Лепин Блондо</string> /   </dict> /   <dict> /    <key>name</key> /    <string>Ив Жак</string> /   </dict> /   <dict> /    <key>name</key> /    <string>Хуана Акоста</string> /   </dict> /  </array> /  <key>directors</key> /  <array> /   <dict> /    <key>name</key> /    <string>Дени Аркан</string> /   </dict> /  </array> /  <key>producers</key> /  <array> /   <dict> /    <key>name</key> /    <string>Дэниэл Луис</string> /   </dict> /   <dict> /    <key>name</key> /    <string>Дениз Робер</string> /   </dict> /   <dict> /    <key>name</key> /    <string>Андреа Пуг</string> /   </dict> /  </array> /  <key>screenwriters</key> /  <array> /   <dict> /    <key>name</key> /    <string>Дени Аркан</string> /   </dict> /   <dict> /    <key>name</key> /    <string>Валери Богран-Шампань</string> /   </dict> /  </array> /  <key>studio</key> /  <string>Les Films Séville</string> / </dict> / </plist>
    Video #1
    ID                                       : 1
    Format                                   : AVC
    Format/Info                              : Advanced Video Codec
    Format profile                           : High@L3.1
    Format settings, CABAC                   : No
    Format settings, ReFrames                : 3 frames
    Codec ID                                 : avc1
    Codec ID/Info                            : Advanced Video Coding
    Duration                                 : 1h 41mn
    Bit rate mode                            : Variable
    Bit rate                                 : 3 500 Kbps
    Width                                    : 1 280 pixels
    Height                                   : 688 pixels
    Display aspect ratio                     : 1.85:1
    Frame rate mode                          : Variable
    Frame rate                               : 23.976 fps
    Minimum frame rate                       : 23.974 fps
    Maximum frame rate                       : 23.981 fps
    Color space                              : YUV
    Chroma subsampling                       : 4:2:0
    Bit depth                                : 8 bits
    Scan type                                : Progressive
    Bits/(Pixel*Frame)                       : 0.166
    Stream size                              : 2.49 GiB (69%)
    Writing library                          : x264 core 142 r2479 dd79a61
    Encoding settings                        : cabac=0 / ref=3 / deblock=1:-3:-3 / analyse=0x3:0x113 / me=umh / subme=9 / psy=1 / psy_rd=1.00:0.15 / mixed_ref=1 / me_range=32 / chroma_me=1 / trellis=0 / 8x8dct=1 / cqm=0 / deadzone=21,11 / fast_pskip=0 / chroma_qp_offset=-2 / threads=36 / lookahead_threads=3 / sliced_threads=0 / nr=0 / decimate=0 / interlaced=0 / bluray_compat=0 / constrained_intra=0 / bframes=3 / b_pyramid=0 / b_adapt=2 / b_bias=0 / direct=1 / weightb=0 / open_gop=0 / weightp=0 / keyint=240 / keyint_min=24 / scenecut=40 / intra_refresh=0 / rc_lookahead=40 / rc=2pass / mbtree=1 / bitrate=3500 / ratetol=1.0 / qcomp=0.65 / qpmin=0 / qpmax=69 / qpstep=4 / cplxblur=20.0 / qblur=0.5 / vbv_maxrate=9500 / vbv_bufsize=9500 / nal_hrd=none / filler=0 / ip_ratio=1.40 / aq=1:1.10
    Language                                 : French
    Encoded date                             : UTC 2015-08-07 11:51:56
    Tagged date                              : UTC 2015-08-07 11:52:02
    Color primaries                          : BT.709-5, BT.1361, IEC 61966-2-4, SMPTE RP177
    Transfer characteristics                 : BT.709-5, BT.1361
    Matrix coefficients                      : BT.709-5, BT.1361, IEC 61966-2-4 709, SMPTE RP177
    Video #2
    ID                                       : 9
    Format                                   : JPEG
    Codec ID                                 : jpeg
    Duration                                 : 1h 41mn
    Bit rate mode                            : Variable
    Bit rate                                 : 1 338 bps
    Width                                    : 640 pixels
    Height                                   : 344 pixels
    Display aspect ratio                     : 1.85:1
    Frame rate mode                          : Variable
    Frame rate                               : 0.003 fps
    Minimum frame rate                       : 0.002 fps
    Maximum frame rate                       : 0.004 fps
    Color space                              : YUV
    Chroma subsampling                       : 4:2:0
    Bit depth                                : 8 bits
    Compression mode                         : Lossy
    Bits/(Pixel*Frame)                       : 2.026
    Stream size                              : 871 KiB (0%)
    Language                                 : French
    Encoded date                             : UTC 2015-08-07 11:52:09
    Tagged date                              : UTC 2015-08-07 11:52:09
    Audio #1
    ID                                       : 2
    Format                                   : AAC
    Format/Info                              : Advanced Audio Codec
    Format profile                           : LC
    Codec ID                                 : 40
    Duration                                 : 1h 41mn
    Bit rate mode                            : Variable
    Bit rate                                 : 156 Kbps
    Maximum bit rate                         : 243 Kbps
    Channel(s)                               : 2 channels
    Channel positions                        : Front: L R
    Sampling rate                            : 48.0 KHz
    Compression mode                         : Lossy
    Stream size                              : 114 MiB (3%)
    Language                                 : Russian
    Encoded date                             : UTC 2015-08-07 11:51:56
    Tagged date                              : UTC 2015-08-07 11:52:05
    Audio #2
    ID                                       : 3
    Format                                   : AAC
    Format/Info                              : Advanced Audio Codec
    Format profile                           : LC
    Codec ID                                 : 40
    Duration                                 : 1h 41mn
    Bit rate mode                            : Variable
    Bit rate                                 : 157 Kbps
    Maximum bit rate                         : 244 Kbps
    Channel(s)                               : 2 channels
    Channel positions                        : Front: L R
    Sampling rate                            : 48.0 KHz
    Compression mode                         : Lossy
    Stream size                              : 115 MiB (3%)
    Language                                 : French
    Encoded date                             : UTC 2015-08-07 11:51:56
    Tagged date                              : UTC 2015-08-07 11:52:05
    Audio #3
    ID                                       : 4
    Format                                   : AC-3
    Format/Info                              : Audio Coding 3
    Mode extension                           : CM (complete main)
    Format settings, Endianness              : Big
    Codec ID                                 : ac-3
    Duration                                 : 1h 41mn
    Bit rate mode                            : Constant
    Bit rate                                 : 640 Kbps
    Channel(s)                               : 6 channels
    Channel positions                        : Front: L C R, Side: L R, LFE
    Sampling rate                            : 48.0 KHz
    Bit depth                                : 16 bits
    Compression mode                         : Lossy
    Stream size                              : 467 MiB (13%)
    Language                                 : Russian
    Encoded date                             : UTC 2015-08-07 11:51:56
    Tagged date                              : UTC 2015-08-07 11:52:03
    Audio #4
    ID                                       : 5
    Format                                   : AC-3
    Format/Info                              : Audio Coding 3
    Mode extension                           : CM (complete main)
    Format settings, Endianness              : Big
    Codec ID                                 : ac-3
    Duration                                 : 1h 41mn
    Bit rate mode                            : Constant
    Bit rate                                 : 640 Kbps
    Channel(s)                               : 6 channels
    Channel positions                        : Front: L C R, Side: L R, LFE
    Sampling rate                            : 48.0 KHz
    Bit depth                                : 16 bits
    Compression mode                         : Lossy
    Stream size                              : 467 MiB (13%)
    Language                                 : French
    Encoded date                             : UTC 2015-08-07 11:51:56
    Tagged date                              : UTC 2015-08-07 11:52:03
    Text #1
    ID                                       : 6
    Format                                   : Timed text
    Muxing mode                              : sbtl
    Codec ID                                 : tx3g
    Duration                                 : 1h 41mn
    Bit rate mode                            : Variable
    Bit rate                                 : 20 bps
    Stream size                              : 15.1 KiB (0%)
    Language                                 : English
    Encoded date                             : UTC 2015-08-07 11:51:56
    Tagged date                              : UTC 2015-08-07 11:51:56
    Text #2
    ID                                       : 7
    Format                                   : Timed text
    Muxing mode                              : sbtl
    Codec ID                                 : tx3g
    Duration                                 : 1h 41mn
    Bit rate mode                            : Variable
    Bit rate                                 : 44 bps
    Stream size                              : 33.1 KiB (0%)
    Language                                 : French
    Encoded date                             : UTC 2015-08-07 11:51:56
    Tagged date                              : UTC 2015-08-07 11:51:56
    Text #3
    ID                                       : 8
    Format                                   : Apple text
    Codec ID                                 : text
    Duration                                 : 1h 41mn
    Bit rate mode                            : Variable
    Bit rate                                 : 0 bps
    Stream size                              : 375 Bytes (0%)
    Language                                 : French
    Encoded date                             : UTC 2015-08-07 11:52:05
    Tagged date                              : UTC 2015-08-07 11:52:05
    Menu
    00:00:00.000                             : Chapter 1
    00:05:04.554                             : Chapter 2
    00:12:20.657                             : Chapter 3
    00:21:33.542                             : Chapter 4
    00:28:27.456                             : Chapter 5
    00:35:36.551                             : Chapter 6
    00:43:46.707                             : Chapter 7
    00:49:01.522                             : Chapter 8
    00:53:23.450                             : Chapter 9
    00:59:21.141                             : Chapter 10
    01:05:45.817                             : Chapter 11
    01:11:55.186                             : Chapter 12
    01:19:54.248                             : Chapter 13
    01:24:30.274                             : Chapter 14
    01:31:42.122                             : Chapter 15
    01:36:15.645                             : Chapter 16

    x264 лог

    x264 [info]: frame I:1154  Avg QP:15.56  size:124410
    x264 [info]: frame P:52310 Avg QP:18.20  size: 35593
    x264 [info]: frame B:93255 Avg QP:19.61  size:  7140
    x264 [info]: consecutive B-frames:  3.2% 22.8% 39.9% 34.1%
    x264 [info]: mb I  I16..4:  8.2% 55.9% 35.9%
    x264 [info]: mb P  I16..4:  1.3%  3.7%  1.8%  P16..4: 51.8% 24.2% 11.0%  0.0%  0.0%    skip: 6.2%
    x264 [info]: mb B  I16..4:  0.1%  0.3%  0.2%  B16..8: 44.0%  7.7%  1.1%  direct: 2.9%  skip:43.7%  L0:40.1% L1:53.9% BI: 6.0%
    x264 [info]: 8x8 transform intra:54.5% inter:46.0%
    x264 [info]: coded y,uvDC,uvAC intra: 78.3% 73.8% 47.1% inter: 22.2% 17.4% 8.3%
    x264 [info]: i16 v,h,dc,p: 46% 18%  9% 28%
    x264 [info]: i8 v,h,dc,ddl,ddr,vr,hd,vl,hu:  9%  9%  6% 11% 15% 14% 14% 11% 11%
    x264 [info]: i4 v,h,dc,ddl,ddr,vr,hd,vl,hu:  9% 11%  4% 11% 16% 15% 14% 10% 10%
    x264 [info]: i8c dc,h,v,p: 50% 19% 20% 10%
    x264 [info]: ref P L0: 71.7% 16.3% 12.0%
    x264 [info]: ref B L0: 78.5% 21.5%
    x264 [info]: kb/s:3492.17

    Скриншоты

    -

    Релиз подготовлен для просмотра на Apple TV, iPad, iPhone, iPod Touch.
    Для просмотра данного релиза на компьютере с ОС Windows рекомендуется использовать VLC media player
    Скачать .torrent

    Скачать торрент-файл бесплатно и на максимальной скорости!

    Как скачивать? · Что такое торрент? · Рейтинг и ограничения

    !ВНИМАНИЕ!
    Сайт не распространяет и не хранит электронные версии произведений, а занимается лишь лишь предоставлением доступа к создаваемому пользователями каталогу ссылок на торрент-файлы, которые содержат только списки хеш-сумм, убедительная просьба с жалобами обращаться напрямую к пользователю. Файлы для обмена на трекере предоставлены пользователями сайта, и администрация не несёт ответственности за их содержание. Просьба не заливать файлы, защищенные авторскими правами, а также файлы нелегального содержания!


    _________________
    [Профиль] [ЛС]
    Показать сообщения:    
    Ответить на тему

    Текущее время: Сегодня, в 05:26

    Часовой пояс: GMT + 2



    Вы не можете начинать темы
    Вы не можете отвечать на сообщения
    Вы не можете редактировать свои сообщения
    Вы не можете удалять свои сообщения
    Вы не можете голосовать в опросах
    Вы не можете прикреплять файлы к сообщениям
    Вы не можете скачивать файлы