BitTorrentTracker PerecTracker.org
BitTorrentTracker PerecTracker.org
    
Регистрация  ·  Вход
 
 · 
Забыли пароль?

  • Дом, милый ад / Север ада / Home Sweet Hell (Энтони Бёрнс) [2014, США, триллер, комедия, драма, WEB-DL HD (720p)] MVO, Oroginal + SUB (eng)

    Ответить на тему
     
    Автор Сообщение

    rechyn

    Создавать темы 07-Авг-2015 04:16

           

    [Цитировать]

    Дом, милый ад / Север ада / Home Sweet Hell
    5.577 / 10
    -Год выпуска: 2014
    Страна: США
    Жанр: триллер, комедия, драма
    Продолжительность: 98 мин.
    Перевод: Многоголосый закадровый перевод
    Оригинальная аудиодорожка: Есть
    Cубтитры: Английские форсированные и английские полные
    Режиссёр: Энтони Бёрнс
    Сценарий: Карло Аллен, Тед Элрик, Том Лаваньино
    Продюсер: А.Дж. Бакли, Энтони Бёрнс, Джефф Калотта
    Оператор: Дэвид Хеннингс
    Художник: Леонард Р. Спирс, Шона Леоне, Пол Бланчард
    Монтаж: Роберт Хоффман
    В ролях: Патрик Уилсон, Кэтрин Хайгл, Джордана Брюстер, Джеймс Белуши, Кевин МакКидд, А.Дж. Бакли, Алишия Окс, Брайс Джонсон, Стеффи Гроут, Хит Фриман
    Бюджет: $3 000 000
    Мировая премьера: 13 марта 2015
    Релиз на DVD: 14 мая 2015, CP Дистрибуция
    Описание: Соблазнительная и интригующая новая сотрудница компании становится проблемой для бизнесмена, который женат на одержимой женщине, пытающейся контролировать все аспекты его жизни.-Качество исходника: WEB-DL 720p (HDClub)
    Качество: WEB-DL
    Тип: 720p
    Контейнер: m4v
    Видео: 1280x540 at 23.976 fps, MPEG-4 AVC, ~3900 kbps avg
    Аудио#1: Russian: 48 kHz, ААС, 2/0 (L,R), ~160.00 kbps avg |Многоголосый закадровый, iTunes Russia|
    Аудио#2: Ukrainian: 48 kHz, ААС, 2/0 (L,R), ~160.00 kbps avg |Многоголосый закадровый, iTunes Russia|
    Аудио#3: English: 48 kHz, ААС, 2/0 (L,R), ~160.00 kbps avg
    Аудио#4: Russian: 48 kHz, AC3, 3/2 (L,C,R,l,r) + LFE ch, ~384.00 kbps avg |Многоголосый закадровый, iTunes Russia|
    Субтитры №1: English: |Форсированные, iTunes|
    Субтитры №2: English: |Полные, iTunes|-

    iTunes Meta Tags for country us

    Name: Home Sweet Hell
    Artist: Anthony Burns
    Genre: Comedy
    Release Date: 2015-03-13T08:00:00Z
    Description: Соблазнительная и интригующая новая сотрудница компании становится проблемой для бизнесмена, который женат на одержимой женщине, пытающейся контролировать все аспекты его жизни.
    Long Description: Соблазнительная и интригующая новая сотрудница компании становится проблемой для бизнесмена, который женат на одержимой женщине, пытающейся контролировать все аспекты его жизни.
    Rating: R
    Rating Annotation: Rated R for violence, language, sexual content and some drug use.
    Studio: Darko Entertainment
    Cast: Патрик Уилсон, Кэтрин Хайгл, Джордана Брюстер, Джеймс Белуши, Кевин МакКидд, А.Дж. Бакли, Алишия Окс, Брайс Джонсон, Стеффи Гроут, Хит Фриман
    Director: Энтони Бёрнс
    Producers: А.Дж. Бакли, Энтони Бёрнс, Джефф Калотта
    Screenwriters: Карло Аллен, Тед Элрик, Том Лаваньино
    Copyright: © 2015 Sony Pictures Worldwide Acquisitions Inc. All Rights Reserved.
    contentID: 960561722
    XID: Apple:vendor_id:2014-748168
    Sort Name: Home Sweet Hell

    iTunes Meta Tags for country ru

    Name: Север ада
    Artist: Anthony Burns
    Genre: Комедии
    Release Date: 2015-03-13T08:00:00Z
    Description: Соблазнительная и интригующая новая сотрудница компании становится проблемой для бизнесмена, который женат на одержимой женщине, пытающейся контролировать все аспекты его жизни.
    Long Description: Соблазнительная и интригующая новая сотрудница компании становится проблемой для бизнесмена, который женат на одержимой женщине, пытающейся контролировать все аспекты его жизни.
    Rating: 18+
    Studio: Darko Entertainment
    Cast: Патрик Уилсон, Кэтрин Хайгл, Джордана Брюстер, Джеймс Белуши, Кевин МакКидд, А.Дж. Бакли, Алишия Окс, Брайс Джонсон, Стеффи Гроут, Хит Фриман
    Director: Энтони Бёрнс
    Producers: А.Дж. Бакли, Энтони Бёрнс, Джефф Калотта
    Screenwriters: Карло Аллен, Тед Элрик, Том Лаваньино
    contentID: 960561722
    XID: Apple:vendor_id:2014-748168
    Sort Name: Север ада

    MediaInfo 720p Release

    General
    Complete name : Home Sweet Hell (HD).m4v
    Format : MPEG-4
    Codec ID : M4V
    File size : 3.28 GiB
    Duration : 1h 37mn
    Overall bit rate mode : Variable
    Overall bit rate : 4 803 Kbps
    Movie name : Home Sweet Hell
    Performer : Anthony Burns
    Director : Энтони Бёрнс
    Actor : Патрик Уилсон / Кэтрин Хайгл / Джордана Брюстер / Джеймс Белуши / Кевин МакКидд / А.Дж. Бакли / Алишия Окс / Брайс Джонсон / Стеффи Гроут / Хит Фриман
    Screenplay by : Карло Аллен / Тед Элрик / Том Лаваньино
    Producer : А.Дж. Бакли / Энтони Бёрнс / Джефф Калотта
    Production studio : Darko Entertainment
    Genre : Comedy
    ContentType : Short Film
    Description : Соблазнительная и интригующая новая сотрудница компании становится проблемой для бизнесмена, который женат на одержимой женщине, пытающейся контролировать все аспекты его жизни.
    Recorded date : UTC 2015-03-13 08:00:00
    Encoded date : UTC 2015-08-05 12:30:15
    Tagged date : UTC 2015-08-05 12:41:39
    Copyright : © 2015 Sony Pictures Worldwide Acquisitions Inc. All Rights Reserved.
    Cover : Yes
    Rating : None
    Title/Sort : Home Sweet Hell
    LongDescription : Соблазнительная и интригующая новая сотрудница компании становится проблемой для бизнесмена, который женат на одержимой женщине, пытающейся контролировать все аспекты его жизни.
    HDVideo : Yes
    AppleStoreCatalogID : 960561722
    Vendor : Apple:vendor_id:2014-748168
    ContentRating : mpaa|R|400|Rated R for violence, language, sexual content and some drug use.
    Video #1
    ID : 1
    Format : AVC
    Format/Info : Advanced Video Codec
    Format profile : Main@L3.1
    Format settings, CABAC : No
    Format settings, ReFrames : 2 frames
    Format settings, GOP : M=2, N=90
    Codec ID : avc1
    Codec ID/Info : Advanced Video Coding
    Duration : 1h 37mn
    Bit rate : 3 934 Kbps
    Width : 1 280 pixels
    Height : 540 pixels
    Display aspect ratio : 2.40:1
    Frame rate mode : Variable
    Frame rate : 23.976 fps
    Minimum frame rate : 23.810 fps
    Maximum frame rate : 24.390 fps
    Color space : YUV
    Chroma subsampling : 4:2:0
    Bit depth : 8 bits
    Scan type : Progressive
    Bits/(Pixel*Frame) : 0.237
    Stream size : 2.69 GiB (82%)
    Title : Main Program
    Language : English
    Encoded date : UTC 2015-08-05 12:30:15
    Tagged date : UTC 2015-08-05 12:33:30
    Color range : Limited
    Color primaries : BT.709
    Transfer characteristics : BT.709
    Matrix coefficients : BT.709
    Video #2
    ID : 9
    Format : JPEG
    Codec ID : jpeg
    Duration : 1h 37mn
    Bit rate mode : Variable
    Bit rate : 784 bps
    Width : 640 pixels
    Height : 270 pixels
    Display aspect ratio : 2.40:1
    Frame rate mode : Variable
    Frame rate : 0.003 fps
    Minimum frame rate : 0.002 fps
    Maximum frame rate : 0.005 fps
    Color space : YUV
    Chroma subsampling : 4:2:0
    Bit depth : 8 bits
    Compression mode : Lossy
    Bits/(Pixel*Frame) : 1.512
    Stream size : 510 KiB (0%)
    Title : Chapter Images
    Language : English
    Encoded date : UTC 2015-08-05 12:33:36
    Tagged date : UTC 2015-08-05 12:33:37
    Audio #1
    ID : 2
    Format : AAC
    Format/Info : Advanced Audio Codec
    Format profile : LC
    Codec ID : 40
    Duration : 1h 37mn
    Bit rate mode : Variable
    Bit rate : 164 Kbps
    Maximum bit rate : 257 Kbps
    Channel(s) : 2 channels
    Channel positions : Front: L R
    Sampling rate : 48.0 KHz
    Compression mode : Lossy
    Stream size : 115 MiB (3%)
    Title : Russian MVO from iTunes Stereo
    Language : Russian
    Encoded date : UTC 2015-08-05 12:30:15
    Tagged date : UTC 2015-08-05 12:30:20
    Audio #2
    ID : 3
    Format : AAC
    Format/Info : Advanced Audio Codec
    Format profile : LC
    Codec ID : 40
    Duration : 1h 37mn
    Bit rate mode : Variable
    Bit rate : 154 Kbps
    Maximum bit rate : 239 Kbps
    Channel(s) : 2 channels
    Channel positions : Front: L R
    Sampling rate : 48.0 KHz
    Compression mode : Lossy
    Stream size : 108 MiB (3%)
    Title : Ukrainian MVO from iTunes Stereo
    Language : Ukrainian
    Encoded date : UTC 2015-08-05 12:30:15
    Tagged date : UTC 2015-08-05 12:33:30
    Audio #3
    ID : 4
    Format : AAC
    Format/Info : Advanced Audio Codec
    Format profile : LC
    Codec ID : 40
    Duration : 1h 37mn
    Bit rate mode : Variable
    Bit rate : 154 Kbps
    Maximum bit rate : 239 Kbps
    Channel(s) : 2 channels
    Channel positions : Front: L R
    Sampling rate : 48.0 KHz
    Compression mode : Lossy
    Stream size : 108 MiB (3%)
    Title : English Stereo
    Language : English
    Encoded date : UTC 2015-08-05 12:30:15
    Tagged date : UTC 2015-08-05 12:33:30
    Audio #4
    ID : 5
    Format : AC-3
    Format/Info : Audio Coding 3
    Mode extension : CM (complete main)
    Format settings, Endianness : Big
    Codec ID : ac-3
    Duration : 1h 37mn
    Bit rate mode : Constant
    Bit rate : 384 Kbps
    Channel(s) : 6 channels
    Channel positions : Front: L C R, Side: L R, LFE
    Sampling rate : 48.0 KHz
    Bit depth : 16 bits
    Compression mode : Lossy
    Stream size : 269 MiB (8%)
    Title : Russian MVO from iTunes DD 5.1
    Language : Russian
    Encoded date : UTC 2015-08-05 12:30:15
    Tagged date : UTC 2015-08-05 12:33:30
    Text #1
    ID : 6
    Format : Timed Text
    Muxing mode : sbtl
    Codec ID : tx3g
    Duration : 1h 28mn
    Bit rate mode : Variable
    Bit rate : 0 bps
    Stream size : 195 Bytes (0%)
    Title : English Forced Subtitle
    Language : English
    Encoded date : UTC 2015-08-05 12:30:15
    Tagged date : UTC 2015-08-05 12:30:15
    Text #2
    ID : 7
    Format : Timed Text
    Muxing mode : sbtl
    Codec ID : tx3g
    Duration : 1h 37mn
    Bit rate mode : Variable
    Bit rate : 57 bps
    Stream size : 41.0 KiB (0%)
    Title : English Subtitle
    Language : English
    Encoded date : UTC 2015-08-05 12:30:15
    Tagged date : UTC 2015-08-05 12:30:15
    Menu #1
    00:00:00.000 : 1
    00:03:18.000 : 2
    00:09:51.000 : 3
    00:14:58.000 : 4
    00:21:55.000 : 5
    00:26:15.000 : 6
    00:31:40.000 : 7
    00:37:43.000 : 8
    00:43:21.000 : 9
    00:48:41.000 : 10
    00:54:09.000 : 11
    01:01:13.000 : 12
    01:08:46.000 : 13
    01:15:52.000 : 14
    01:22:17.000 : 15
    01:31:17.000 : 16
    Menu #2
    ID : 8
    Codec ID : text
    Duration : 1h 37mn
    Title : Chapter Titles
    Language : English
    Encoded date : UTC 2015-08-05 12:33:30
    Tagged date : UTC 2015-08-05 12:33:30
    00:00:00.000 : 1
    00:03:18.000 : 2
    00:09:51.000 : 3
    00:14:58.000 : 4
    00:21:55.000 : 5
    00:26:15.000 : 6
    00:31:40.000 : 7
    00:37:43.000 : 8
    00:43:21.000 : 9
    00:48:41.000 : 10
    00:54:09.000 : 11
    01:01:13.000 : 12
    01:08:46.000 : 13
    01:15:52.000 : 14
    01:22:17.000 : 15
    01:31:17.000 : 16
    Bit rate mode : VBR

    Скриншоты 720p Release

    -

    Релиз подготовлен для просмотра на Apple TV, iPad, iPhone, iPod Touch.
    Для просмотра данного релиза на компьютере с ОС Windows рекомендуется использовать VLC media player
    Скачать .torrent

    Скачать торрент-файл бесплатно и на максимальной скорости!

    Как скачивать? · Что такое торрент? · Рейтинг и ограничения

    !ВНИМАНИЕ!
    Сайт не распространяет и не хранит электронные версии произведений, а занимается лишь лишь предоставлением доступа к создаваемому пользователями каталогу ссылок на торрент-файлы, которые содержат только списки хеш-сумм, убедительная просьба с жалобами обращаться напрямую к пользователю. Файлы для обмена на трекере предоставлены пользователями сайта, и администрация не несёт ответственности за их содержание. Просьба не заливать файлы, защищенные авторскими правами, а также файлы нелегального содержания!


    _________________
    [Профиль] [ЛС]
    Показать сообщения:    
    Ответить на тему

    Текущее время: Сегодня, в 18:15

    Часовой пояс: GMT + 2



    Вы не можете начинать темы
    Вы не можете отвечать на сообщения
    Вы не можете редактировать свои сообщения
    Вы не можете удалять свои сообщения
    Вы не можете голосовать в опросах
    Вы не можете прикреплять файлы к сообщениям
    Вы не можете скачивать файлы