BitTorrentTracker PerecTracker.org
BitTorrentTracker PerecTracker.org
    
Регистрация  ·  Вход
 
 · 
Забыли пароль?

  • Магия лунного света / Magic in the Moonlight (Вуди Аллен) [2014, США, Великобритания, мелодрама, комедия, WEB-DL HD (720p)] DUB, Original + SUB (rus, eng)

    Ответить на тему
     
    Автор Сообщение

    rechyn

    Создавать темы 07-Авг-2015 04:16

           

    [Цитировать]

    Магия лунного света / Magic in the Moonlight
    7.191 / 10
    -Год выпуска: 2014
    Страна: США, Великобритания
    Жанр: мелодрама, комедия
    Продолжительность: 93 мин.
    Перевод: Профессиональный дублированный перевод
    Оригинальная аудиодорожка: Есть
    Cубтитры: Русские полные и английские полные
    Режиссёр: Вуди Аллен
    Сценарий: Вуди Аллен
    Продюсер: Летти Аронсон, Стивен Тененбаум, Эдвард Уолсон
    Оператор: Дариус Хонджи
    Художник: Анна Зейбель, Соня Гранде, Джилл Азис
    Монтаж: Алиса Лепселтер
    В ролях: Колин Фёрт, Эмма Стоун, Катрин МакКормак, Хамиш Линклэйтер, Марша Гей Харден, Джеки Уивер, Эрика Лирсен, Айлин Эткинс, Саймон МакБерни, Джереми Шамос
    Роли дублировали: Игорь Тарадайкин, Татьяна Шитова, Наталья Грачёва, Сергей Смирнов, Владимир Антипов
    Сборы в США: $10 539 326
    Сборы в мире: + $21 800 000 = $32 339 326
    Сборы в России: $1 356 354
    Мировая премьера: 25 июля 2014
    Премьера (РФ): 25 сентября 2014, Централ Партнершип
    Релиз на DVD: 19 марта 2015, CD Land
    Описание: 1928 год. Выдающийся иллюзионист по просьбе своего друга и коллеги приезжает на Лазурный Берег разоблачить молодую привлекательную шарлатанку, якобы умеющую вызывать духов умерших. Она очаровала богатого наследника и его мать-вдову, а это не устраивает других членов семьи.-Качество исходника: WEB-DL 720p (HDClub)
    Качество: WEB-DL
    Тип: 720p
    Контейнер: m4v
    Видео: 960x720 анаморф 1280x720 at 25.000 fps, MPEG-4 AVC, ~4000 kbps avg
    Аудио#1: Russian: 48 kHz, ААС, 2/0 (L,R), ~160.00 kbps avg |Дубляж, iTunes Russia|
    Аудио#2: English: 48 kHz, ААС, 2/0 (L,R), ~160.00 kbps avg |Blu-ray AVC DTS-HD MA 5.1|
    Аудио#3: Russian: 48 kHz, AC3, 3/2 (L,C,R,l,r) + LFE ch, ~384.00 kbps avg |Дубляж, iTunes Russia|
    Аудио#4: English: 48 kHz, AC3, 3/2 (L,C,R,l,r) + LFE ch, ~640.00 kbps avg |Blu-ray AVC DTS-HD MA 5.1|
    Субтитры №1: Russian: |Полные|
    Субтитры №2: English: |Полные|-

    Знаете ли Вы, что...
  • Стэнли (Колин Фёрт) говорит в фильме, что его любимое музыкальное произведение 7-ая симфония Людвига ван Бетховена. Под эту композицию Колин Фёрт произносит речь в конце фильма «Король говорит!» (2010).
    Ошибки в фильме
  • В первой сцене текст на китайском на фоне написан с использованием упрощенных китайских иероглифов, которые не были введены до 1935-го года, а официально стали использоваться в материковом Китае только в середине 1950-х.
  • В одной сцене Софи просит телефон в доме тети Ванессы. Позже в фильме можно заметить, что телефон расположен прямо у двери, рядом с тем местом, где она стояла.
    -

    iTunes Meta Tags for country ru

    Name: Магия лунного света
    Artist: Woody Allen
    Genre: Романтические фильмы
    Release Date: 2014-07-25T08:00:00Z
    Description: 1928 год. Выдающийся иллюзионист по просьбе своего друга и коллеги приезжает на Лазурный Берег разоблачить молодую привлекательную шарлатанку, якобы умеющую вызывать духов умерших. Она очаровала богатого наследника и его мать-вдову, а это не устраивает других членов семьи.
    Long Description: 1928 год. Выдающийся иллюзионист по просьбе своего друга и коллеги приезжает на Лазурный Берег разоблачить молодую привлекательную шарлатанку, якобы умеющую вызывать духов умерших. Она очаровала богатого наследника и его мать-вдову, а это не устраивает других членов семьи.
    Rating: 12+
    Studio: Dippermouth, Gravier Productions, Perdido Productions, Ske-Dat-De-Dat Prodactions
    Cast: Колин Фёрт, Эмма Стоун, Катрин МакКормак, Хамиш Линклэйтер, Марша Гей Харден, Джеки Уивер, Эрика Лирсен, Айлин Эткинс, Саймон МакБерни, Джереми Шамос
    Director: Вуди Аллен
    Producers: Летти Аронсон, Стивен Тененбаум, Эдвард Уолсон
    Screenwriters: Вуди Аллен
    Copyright: © 2014 Gravier Productions
    contentID: 964956113
    XID: Apple:vendor_id:2014-759558
    Sort Name: Магия лунного света

    iTunes Meta Tags for country us

    Name: Magic in the Moonlight
    Artist: Woody Allen
    Genre: Comedy
    Release Date: 2014-07-25T08:00:00Z
    Description: 1928 год. Выдающийся иллюзионист по просьбе своего друга и коллеги приезжает на Лазурный Берег разоблачить молодую привлекательную шарлатанку, якобы умеющую вызывать духов умерших. Она очаровала богатого наследника и его мать-вдову, а это не устраивает других членов семьи.
    Long Description: 1928 год. Выдающийся иллюзионист по просьбе своего друга и коллеги приезжает на Лазурный Берег разоблачить молодую привлекательную шарлатанку, якобы умеющую вызывать духов умерших. Она очаровала богатого наследника и его мать-вдову, а это не устраивает других членов семьи.
    Rating: PG-13
    Rating Annotation: Rated PG-13 for a brief suggestive comment, and smoking throughout.
    Studio: Gravier Productions, Inc.
    Cast: Колин Фёрт, Эмма Стоун, Катрин МакКормак, Хамиш Линклэйтер, Марша Гей Харден, Джеки Уивер, Эрика Лирсен, Айлин Эткинс, Саймон МакБерни, Джереми Шамос
    Director: Вуди Аллен
    Producers: Летти Аронсон, Стивен Тененбаум, Эдвард Уолсон
    Screenwriters: Вуди Аллен
    Copyright: © 2014 Gravier Productions, Inc. All Rights Reserved.
    contentID: 935976591
    XID: Apple:vendor_id:2014-759558
    Sort Name: Magic in the Moonlight

    MediaInfo 720p Release

    General
    Complete name : Magic in the Moonlight (HD).m4v
    Format : MPEG-4
    Codec ID : M4V
    File size : 3.47 GiB
    Duration : 1h 33mn
    Overall bit rate mode : Variable
    Overall bit rate : 5 302 Kbps
    Movie name : Magic in the Moonlight
    Performer : Woody Allen
    Director : Вуди Аллен
    Actor : Колин Фёрт / Эмма Стоун / Катрин МакКормак / Хамиш Линклэйтер / Марша Гей Харден / Джеки Уивер / Эрика Лирсен / Айлин Эткинс / Саймон МакБерни / Джереми Шамос
    Screenplay by : Вуди Аллен
    Producer : Летти Аронсон / Стивен Тененбаум / Эдвард Уолсон
    Production studio : Gravier Productions, Inc.
    Genre : Comedy
    ContentType : Short Film
    Description : 1928 год. Выдающийся иллюзионист по просьбе своего друга и коллеги приезжает на Лазурный Берег разоблачить молодую привлекательную шарлатанку, якобы умеющую вызывать духов умерших. Она очаровала богатого наследника и его мать-вдову, а это не устраивает других членов семьи.
    Recorded date : UTC 2014-07-25 08:00:00
    Encoded date : UTC 2015-08-05 14:01:18
    Tagged date : UTC 2015-08-05 14:51:37
    Copyright : © 2014 Gravier Productions, Inc. All Rights Reserved.
    Cover : Yes
    Rating : None
    Title/Sort : Magic in the Moonlight
    LongDescription : 1928 год. Выдающийся иллюзионист по просьбе своего друга и коллеги приезжает на Лазурный Берег разоблачить молодую привлекательную шарлатанку, якобы умеющую вызывать духов умерших. Она очаровала богатого наследника и его мать-вдову, а это не устраивает других членов семьи.
    HDVideo : Yes
    AppleStoreCatalogID : 935976591
    Vendor : Apple:vendor_id:2014-759558
    ContentRating : mpaa|PG-13|300|Rated PG-13 for a brief suggestive comment, and smoking throughout.
    Video #1
    ID : 1
    Format : AVC
    Format/Info : Advanced Video Codec
    Format profile : Main@L3.1
    Format settings, CABAC : No
    Format settings, ReFrames : 2 frames
    Format settings, GOP : M=2, N=90
    Codec ID : avc1
    Codec ID/Info : Advanced Video Coding
    Duration : 1h 33mn
    Bit rate : 3 971 Kbps
    Width : 960 pixels
    Height : 720 pixels
    Display aspect ratio : 16:9
    Frame rate mode : Constant
    Frame rate : 25.000 fps
    Color space : YUV
    Chroma subsampling : 4:2:0
    Bit depth : 8 bits
    Scan type : Progressive
    Bits/(Pixel*Frame) : 0.230
    Stream size : 2.59 GiB (74%)
    Title : Main Program
    Language : English
    Encoded date : UTC 2015-08-05 14:01:18
    Tagged date : UTC 2015-08-05 14:03:01
    Color range : Limited
    Color primaries : BT.709
    Transfer characteristics : BT.709
    Matrix coefficients : BT.709
    Video #2
    ID : 10
    Format : JPEG
    Codec ID : jpeg
    Duration : 1h 33mn
    Bit rate mode : Variable
    Bit rate : 1 484 bps
    Width : 640 pixels
    Height : 360 pixels
    Display aspect ratio : 16:9
    Frame rate mode : Variable
    Frame rate : 0.003 fps
    Minimum frame rate : 0.002 fps
    Maximum frame rate : 0.004 fps
    Color space : YUV
    Chroma subsampling : 4:2:0
    Bit depth : 8 bits
    Compression mode : Lossy
    Bits/(Pixel*Frame) : 2.147
    Stream size : 1.00 MiB (0%)
    Title : Chapter Images
    Language : English
    Encoded date : UTC 2015-08-05 14:51:25
    Tagged date : UTC 2015-08-05 14:51:26
    Audio #1
    ID : 2
    Format : AAC
    Format/Info : Advanced Audio Codec
    Format profile : LC
    Codec ID : 40
    Duration : 1h 33mn
    Bit rate mode : Variable
    Bit rate : 162 Kbps
    Maximum bit rate : 242 Kbps
    Channel(s) : 2 channels
    Channel positions : Front: L R
    Sampling rate : 48.0 KHz
    Compression mode : Lossy
    Stream size : 108 MiB (3%)
    Title : Russian DUB from iTunes Stereo
    Language : Russian
    Encoded date : UTC 2015-08-05 14:01:18
    Tagged date : UTC 2015-08-05 14:01:22
    Audio #2
    ID : 3
    Format : AAC
    Format/Info : Advanced Audio Codec
    Format profile : LC
    Codec ID : 40
    Duration : 1h 33mn
    Bit rate mode : Variable
    Bit rate : 161 Kbps
    Maximum bit rate : 257 Kbps
    Channel(s) : 2 channels
    Channel positions : Front: L R
    Sampling rate : 48.0 KHz
    Compression mode : Lossy
    Stream size : 108 MiB (3%)
    Title : English Stereo
    Language : English
    Encoded date : UTC 2015-08-05 14:01:18
    Tagged date : UTC 2015-08-05 14:01:22
    Audio #3
    ID : 4
    Format : AC-3
    Format/Info : Audio Coding 3
    Mode extension : CM (complete main)
    Format settings, Endianness : Big
    Codec ID : ac-3
    Duration : 1h 33mn
    Bit rate mode : Constant
    Bit rate : 384 Kbps
    Channel(s) : 6 channels
    Channel positions : Front: L C R, Side: L R, LFE
    Sampling rate : 48.0 KHz
    Bit depth : 16 bits
    Compression mode : Lossy
    Stream size : 256 MiB (7%)
    Title : Russian DUB from iTunes DD 5.1
    Language : Russian
    Encoded date : UTC 2015-08-05 14:01:18
    Tagged date : UTC 2015-08-05 14:03:01
    Audio #4
    ID : 5
    Format : AC-3
    Format/Info : Audio Coding 3
    Mode extension : CM (complete main)
    Format settings, Endianness : Big
    Codec ID : ac-3
    Duration : 1h 33mn
    Bit rate mode : Constant
    Bit rate : 640 Kbps
    Channel(s) : 6 channels
    Channel positions : Front: L C R, Side: L R, LFE
    Sampling rate : 48.0 KHz
    Bit depth : 16 bits
    Compression mode : Lossy
    Stream size : 427 MiB (12%)
    Title : English DD 5.1
    Language : English
    Encoded date : UTC 2015-08-05 14:47:55
    Tagged date : UTC 2015-08-05 14:47:58
    Text #1
    ID : 6
    Format : Timed Text
    Muxing mode : sbtl
    Codec ID : tx3g
    Duration : 1h 29mn
    Bit rate mode : Variable
    Bit rate : 181 bps
    Stream size : 119 KiB (0%)
    Title : Russian Subtitle
    Language : Russian
    Encoded date : UTC 2015-08-05 14:50:09
    Tagged date : UTC 2015-08-05 14:50:09
    Text #2
    ID : 7
    Format : Timed Text
    Muxing mode : sbtl
    Codec ID : tx3g
    Duration : 1h 29mn
    Bit rate mode : Variable
    Bit rate : 104 bps
    Stream size : 68.2 KiB (0%)
    Title : English Subtitle
    Language : English
    Encoded date : UTC 2015-08-05 14:50:59
    Tagged date : UTC 2015-08-05 14:50:59
    Text #3
    ID : 8
    Format : Timed Text
    Muxing mode : sbtl
    Codec ID : tx3g
    Duration : 1h 29mn
    Bit rate mode : Variable
    Bit rate : 110 bps
    Stream size : 72.4 KiB (0%)
    Title : English SDH Subtitle
    Language : English
    Encoded date : UTC 2015-08-05 14:50:59
    Tagged date : UTC 2015-08-05 14:50:59
    Menu #1
    00:00:00.000 : 1
    00:06:02.000 : 2
    00:11:18.000 : 3
    00:15:21.000 : 4
    00:19:17.000 : 5
    00:23:01.000 : 6
    00:29:28.000 : 7
    00:35:49.000 : 8
    00:41:58.000 : 9
    00:47:24.000 : 10
    00:52:19.000 : 11
    00:56:38.000 : 12
    01:02:37.000 : 13
    01:07:58.000 : 14
    01:14:57.000 : 15
    01:21:04.000 : 16
    01:25:49.000 : 17
    Menu #2
    ID : 9
    Codec ID : text
    Duration : 1h 33mn
    Title : Chapter Titles
    Language : English
    Encoded date : UTC 2015-08-05 14:51:22
    Tagged date : UTC 2015-08-05 14:51:22
    00:00:00.000 : 1
    00:06:02.000 : 2
    00:11:18.000 : 3
    00:15:21.000 : 4
    00:19:17.000 : 5
    00:23:01.000 : 6
    00:29:28.000 : 7
    00:35:49.000 : 8
    00:41:58.000 : 9
    00:47:24.000 : 10
    00:52:19.000 : 11
    00:56:38.000 : 12
    01:02:37.000 : 13
    01:07:58.000 : 14
    01:14:57.000 : 15
    01:21:04.000 : 16
    01:25:49.000 : 17
    Bit rate mode : VBR

    Скриншоты 720p Release

    Цитата:
    Цитата:

    • Сохранены оригинальные главы.
    • Оригинальная дорога и субтитры взяты из этой раздачи и аккуратно подогнаны под WEB-DL.
    -

    Релиз подготовлен для просмотра на Apple TV, iPad, iPhone, iPod Touch.
    Для просмотра данного релиза на компьютере с ОС Windows рекомендуется использовать VLC media player
    Скачать .torrent

    Скачать торрент-файл бесплатно и на максимальной скорости!

    Как скачивать? · Что такое торрент? · Рейтинг и ограничения

    !ВНИМАНИЕ!
    Сайт не распространяет и не хранит электронные версии произведений, а занимается лишь лишь предоставлением доступа к создаваемому пользователями каталогу ссылок на торрент-файлы, которые содержат только списки хеш-сумм, убедительная просьба с жалобами обращаться напрямую к пользователю. Файлы для обмена на трекере предоставлены пользователями сайта, и администрация не несёт ответственности за их содержание. Просьба не заливать файлы, защищенные авторскими правами, а также файлы нелегального содержания!


  • _________________
    [Профиль] [ЛС]
    Показать сообщения:    
    Ответить на тему

    Текущее время: Сегодня, в 01:25

    Часовой пояс: GMT + 2



    Вы не можете начинать темы
    Вы не можете отвечать на сообщения
    Вы не можете редактировать свои сообщения
    Вы не можете удалять свои сообщения
    Вы не можете голосовать в опросах
    Вы не можете прикреплять файлы к сообщениям
    Вы не можете скачивать файлы