Register  ·  Log in
Forgot password?

  • Форсаж 7 / Furious Seven (Джеймс Ван / James Wan) [2015, США, Боевик, триллер, криминал, BDRip] [Расширенная версия / Extended Cut] Dub

    Reply to topic
    Author Message


    Post 06-Aug-2015 21:58



    Форсаж 7 / Furious Seven
    «Месть не знает границ»
    -Год выпуска: 2015
    Выпущено: США / Universal Pictures, Original Film
    Жанр: боевик, триллер, криминал
    Продолжительность: 02:19:54
    Перевод: Профессиональный (полное дублирование) BD CEE
    Cубтитры: нет-Режиссер:
    Джеймс Ван / James Wan-В ролях:
    Пол Уокер (Brian O'Conner), Вин Дизель (Dominic Toretto), Джейсон Стэйтем (Deckard Shaw), Мишель Родригес (Letty), Дуэйн Джонсон (Hobbs), Тайриз Гибсон (Roman), Лудакрис (Tej), Натали Эммануэль (Ramsey), Джордана Брюстер (Mia), Курт Рассел (Mr. Nobody), Тони Джа (Kiet), Джимон Хонсу (Jakande), Эльза Патаки (Elena), Лукас Блэк (Sean Boswell), Галь Гадот (Gisele), Люк Эванс (Owen Shaw), Санг Кенг (Han), Ронда Раузи (Kara)-Описание:
    Они покорили Токио и Рио, Лос-Анджелес и Лондон. Но мир больше не играет по их правилам. Зной арабских пустынь, неприлично высокие небоскребы, миллионы долларов на колесах и очень, очень знаменитый злодей. Скорость не знает границ.-Релиз групп
    | | IMDB | КиноПоиск | Сэмпл |-Тип релиза: BDRip [BDRemux | 1080p | Кинозал]
    Контейнер: AVI
    Видео: 720x304 (2.37:1), 23.976 fps, XviD build 73 ~1291 kbps avg, 0.25 bit/pixel
    Аудио: 48 kHz, AC3 Dolby Digital, 2/0 (L,R) ch, ~192.00 kbps avg-



    Complete name                            : D:\Forsazh_7_2015_BDRip_[Extended_Cut]_by_Dalemake.avi
    Format                                   : AVI
    Format/Info                              : Audio Video Interleave
    File size                                : 1.46 GiB
    Duration                                 : 2h 19mn
    Overall bit rate                         : 1 492 Kbps
    Writing application                      : VirtualDubMod | || (build 2550/release)
    Writing library                          : VirtualDubMod build 2550/release
    ID                                       : 0
    Format                                   : MPEG-4 Visual
    Format profile                           : Advanced Simple@L5
    Format settings, BVOP                    : 1
    Format settings, QPel                    : No
    Format settings, GMC                     : No warppoints
    Format settings, Matrix                  : Custom
    Codec ID                                 : XVID
    Codec ID/Hint                            : XviD
    Duration                                 : 2h 19mn
    Bit rate                                 : 1 291 Kbps
    Width                                    : 720 pixels
    Height                                   : 304 pixels
    Display aspect ratio                     : 2.35:1
    Frame rate                               : 23.976 fps
    Color space                              : YUV
    Chroma subsampling                       : 4:2:0
    Bit depth                                : 8 bits
    Scan type                                : Progressive
    Compression mode                         : Lossy
    Bits/(Pixel*Frame)                       : 0.246
    Stream size                              : 1.26 GiB (86%)
    Writing library                          : XviD 73
    ID                                       : 1
    Format                                   : AC-3
    Format/Info                              : Audio Coding 3
    Mode extension                           : CM (complete main)
    Format settings, Endianness              : Big
    Codec ID                                 : 2000
    Duration                                 : 2h 19mn
    Bit rate mode                            : Constant
    Bit rate                                 : 192 Kbps
    Channel(s)                               : 2 channels
    Channel positions                        : Front: L R
    Sampling rate                            : 48.0 KHz
    Bit depth                                : 16 bits
    Compression mode                         : Lossy
    Stream size                              : 192 MiB (13%)
    Alignment                                : Split accross interleaves
    Interleave, duration                     : 42 ms (1.00 video frame)
    Interleave, preload duration             : 500 ms
    Download .torrent

    Download free and at maximum speed!

    How to Download? · What is a torrent? · Ratings and Limitations

    The site does not extend and does not store electronic(digital) versions of products, and only gives access to a reference catalogue created by users on torrent-files which contain only lists of the hash-sums, the earnest entreaty, with complaints(abuse) to access directly to the user. Files for an exchange on tracker are given by users of a site, and the administration does not bear the responsibility for their maintenance. The request to not fill in the files protected by copyrights, and also files of the illegal maintenance!

    [Profile] [PM]
    Display posts from previous:    
    Reply to topic

    The time now is: Today 22:44

    All times are GMT + 3 Hours

    You cannot post new topics in this forum
    You cannot reply to topics in this forum
    You cannot edit your posts in this forum
    You cannot delete your posts in this forum
    You cannot vote in polls in this forum
    You cannot attach files in this forum
    You cannot download files in this forum