Register  ·  Log in
Forgot password?

  • Хорошее убийство / Good Kill (Эндрю Никкол / Andrew Niccol) [2014, США, Драма, Военный, HDRip] MVO

    Reply to topic
    Author Message


    Post 06-Aug-2015 21:58



    Хорошее убийство
    Good Kill
    -Год выпуска: 2014
    Страна: США
    Жанр: Драма, Военный
    Продолжительность: 01:42:48
    Перевод: Профессиональное (многоголосный закадровый)
    Субтитры: нет
    Оригинальная аудиодорожка: нет-Режиссер: Эндрю Никкол / Andrew Niccol-В ролях: Итан Хоук, Дженьюэри Джонс, Зои Кравиц, Джейк Эйбел, Брюс Гринвуд, Альма Сиснерос, Кристен Рейкс, Рич Чавез, Майкл Шитс, Билл Сьюард-Описание: Действие фильма развернется вокруг летчика, управляющего беспилотным истребителем из Лос-Анджелеса. Каждый день он атакует талибов на другом конце земного шара, а по вечерам отправляется домой, где его ждут скандалы с женой и детьми. Устав от такой жизни, главный герой начинает сомневаться в правильности своей миссии. Ведь сколько бы террористов он не убил, им на смену приходят новые.- -Семпл:Качество видео: HDRip (исходник BDRip 720p)
    Формат видео: AVI
    Видео: 720x304 (2.37:1), 23.976 fps, XviD build 73 ~1822 kbps avg, 0.35 bit/pixel
    Аудио: 48 kHz, AC3 Dolby Digital, 2/0 (L,R) ch, ~192 kbps-


    Complete name : X0P0shEE.ub1jCtB0.2014.P.HDRip.avi
    Format : AVI
    Format/Info : Audio Video Interleave
    File size : 1.45 GiB
    Duration : 1h 42mn
    Overall bit rate : 2 024 Kbps
    Writing application : VirtualDubMod (build 2540/release)
    Writing library : VirtualDubMod build 2540/release
    ID : 0
    Format : MPEG-4 Visual
    Format profile : Advanced Simple@L5
    Format settings, BVOP : 1
    Format settings, QPel : No
    Format settings, GMC : No warppoints
    Format settings, Matrix : Custom
    Codec ID : XVID
    Codec ID/Hint : XviD
    Duration : 1h 42mn
    Bit rate : 1 822 Kbps
    Width : 720 pixels
    Height : 304 pixels
    Display aspect ratio : 2.35:1
    Frame rate : 23.976 fps
    Color space : YUV
    Chroma subsampling : 4:2:0
    Bit depth : 8 bits
    Scan type : Progressive
    Compression mode : Lossy
    Bits/(Pixel*Frame) : 0.347
    Stream size : 1.31 GiB (90%)
    Writing library : XviD 73
    ID : 1
    Format : AC-3
    Format/Info : Audio Coding 3
    Mode extension : CM (complete main)
    Format settings, Endianness : Big
    Codec ID : 2000
    Duration : 1h 42mn
    Bit rate mode : Constant
    Bit rate : 192 Kbps
    Channel(s) : 2 channels
    Channel positions : Front: L R
    Sampling rate : 48.0 KHz
    Compression mode : Lossy
    Stream size : 141 MiB (9%)
    Alignment : Split accross interleaves
    Interleave, duration : 42 ms (1.00 video frame)
    Interleave, preload duratio : 500 ms


    Download .torrent

    Download free and at maximum speed!

    How to Download? · What is a torrent? · Ratings and Limitations

    The site does not extend and does not store electronic(digital) versions of products, and only gives access to a reference catalogue created by users on torrent-files which contain only lists of the hash-sums, the earnest entreaty, with complaints(abuse) to access directly to the user. Files for an exchange on tracker are given by users of a site, and the administration does not bear the responsibility for their maintenance. The request to not fill in the files protected by copyrights, and also files of the illegal maintenance!

    [Profile] [PM]
    Display posts from previous:    
    Reply to topic

    The time now is: Today 21:10

    All times are GMT + 3 Hours

    You cannot post new topics in this forum
    You cannot reply to topics in this forum
    You cannot edit your posts in this forum
    You cannot delete your posts in this forum
    You cannot vote in polls in this forum
    You cannot attach files in this forum
    You cannot download files in this forum