Register  ·  Log in
Forgot password?

  • Отдать швартовы! (Феликс Глямшин) [1971 г., Приключения, детский, TVRip]

    Reply to topic
    Author Message


    Post 06-Aug-2015 13:34



    Отдать швартовыГод выпуска: 1971.
    Жанр: Детский, приключения.
    Продолжительность: 01:24:57.
    Режиссер: Феликс Глямшин.
    В ролях:
    Даниил Нетребин, Андрей Крамаренко, Андрей Калашников, О. Грачева, Татьяна Догилева.
    Детский приключенческий фильм.
    Отправившись на поиски клада, ребята попадают на учебный корабль. Забыв о своих детских фантазиях, юные герои совершают на нем поход по местам боевой славы...

    Доп. информация:
    Страна: СССР .
    Киностудия: Творческое объединение "Экран".
    Автор сценария: Б.Багрянцев, Валерий Савченко.
    Оператор: Валерий Шаров.
    Композитор: Шандор Каллош.
    Художник: Юрий Углов.


    Качество: TVRip
    Формат: AVI
    Видео: 688x528 (1.30:1), 25 fps, XviD build 73 ~2282 kbps avg, 0.25 bit/pixel
    Аудио: 48 kHz, AC3 Dolby Digital, 2/0 (L,R) ch, ~192 kbps

    Отчет MI

    Complete name : Otdat'.shvartovy.1971.XviD.TVRip.fenixclub_1,47.avi
    Format : AVI
    Format/Info : Audio Video Interleave
    File size : 1.47 GiB
    Duration : 1h 24mn
    Overall bit rate : 2 485 Kbps
    Writing application : VirtualDubMod | || (build 2550/release)
    Writing library : VirtualDubMod build 2550/release
    ID : 0
    Format : MPEG-4 Visual
    Format profile : Advanced Simple@L5
    Format settings, BVOP : 2
    Format settings, QPel : No
    Format settings, GMC : No warppoints
    Format settings, Matrix : Custom
    Codec ID : XVID
    Codec ID/Hint : XviD
    Duration : 1h 24mn
    Bit rate : 2 283 Kbps
    Width : 688 pixels
    Height : 528 pixels
    Display aspect ratio : 4:3
    Frame rate : 25.000 fps
    Color space : YUV
    Chroma subsampling : 4:2:0
    Bit depth : 8 bits
    Scan type : Progressive
    Compression mode : Lossy
    Bits/(Pixel*Frame) : 0.251
    Stream size : 1.35 GiB (92%)
    Writing library : XviD 73
    ID : 1
    Format : AC-3
    Format/Info : Audio Coding 3
    Mode extension : CM (complete main)
    Format settings, Endianness : Big
    Codec ID : 2000
    Duration : 1h 24mn
    Bit rate mode : Constant
    Bit rate : 192 Kbps
    Channel(s) : 2 channels
    Channel positions : Front: L R
    Sampling rate : 48.0 KHz
    Compression mode : Lossy
    Stream size : 117 MiB (8%)
    Alignment : Split accross interleaves
    Interleave, duration : 40 ms (1.00 video frame)
    Interleave, preload duratio : 500 ms.


    Альтернативный хост

    Download .torrent

    Download free and at maximum speed!

    How to Download? · What is a torrent? · Ratings and Limitations

    The site does not extend and does not store electronic(digital) versions of products, and only gives access to a reference catalogue created by users on torrent-files which contain only lists of the hash-sums, the earnest entreaty, with complaints(abuse) to access directly to the user. Files for an exchange on tracker are given by users of a site, and the administration does not bear the responsibility for their maintenance. The request to not fill in the files protected by copyrights, and also files of the illegal maintenance!

    [Profile] [PM]
    Display posts from previous:    
    Reply to topic

    The time now is: Today 22:22

    All times are GMT + 3 Hours

    You cannot post new topics in this forum
    You cannot reply to topics in this forum
    You cannot edit your posts in this forum
    You cannot delete your posts in this forum
    You cannot vote in polls in this forum
    You cannot attach files in this forum
    You cannot download files in this forum