BitTorrentTracker PerecTracker.org
BitTorrentTracker PerecTracker.org
    
Регистрация  ·  Вход
 
 · 
Забыли пароль?

  • Скажи / Tell (Дж.М.Р. Люна / J.M.R. Luna ) [2014, США, Боевик, драма, криминал, WEB-DL, HD (720p)] MVO + Original + sub (eng)

    Ответить на тему
     
    Автор Сообщение

    rechyn

    Создавать темы 05-Авг-2015 16:46

           

    [Цитировать]

    Скажи / Tell
    -
    5.731 / 10 5.50 / 10
    -Год выпуска: 2014
    Страна: США
    Жанр: Боевик, драма, криминал
    Продолжительность: 01:28:54
    Перевод: Многоголосый закадровый
    Оригинальная аудиодорожка: Есть
    Cубтитры: Английские
    Режиссёр: Дж.М.Р. Люна
    Сценарий: Тимоти Уильямс
    Продюсер: Кристофер Бойд, Расс Кандифф, Дж.М.Р. Люна
    Оператор: Ярон Леви
    Композитор: Стив Дэвис
    Художник: Майя Сигел, Джастин Сеймур, Даниэль Лобах
    Монтаж: Майкл П. Шовер
    В ролях: Майло Вентимилья, Кэти Сакхофф, Джейсон Ли, Роберт Патрик, Алан Тьюдик, Джон Майкл Хиггинс, Фэйзон Лав, Оскар Нунез, Питер Рейнерт, Моника Янг
    Мировая премьера: 4 декабря 2014
    Описание: Мелкому мошеннику Этану Теллу удается сорвать куш в миллион долларов и оставить других с носом. Но полиция ловит его и после отсидки, он решает жить честно. Но его продолжают преследовать коррумпированные полицейские, офицер по досрочному освобождению, участники ограбления, даже жена. У всех один вопрос: «Где деньги?»-Качество исходника: WEB-DL 720p (Кинозал)
    Качество: WEB-DL
    Тип: HD (720p)
    Контейнер: M4V
    Видео: H.264, 1280x528, 2.40:1, 4 004 Kbps, 23.976 fps
    Аудио 1: Русский/Многоголосый закадровый , AAC / 2.0 / 154 Kbps / 48.0 KHz
    Аудио 2: Английский/Оригинальная дорожка , AAC / 2.0 / 154 Kbps / 48.0 KHz
    Аудио 3: Английский/Оригинальная дорожка , AC-3 / 5.1 / 384 Kbps / 48.0 KHz
    Субтитры: Английские полные
    -

    iTunes Meta Tags

    Sort Name: Tell
    XID: Apple:vendor_id:2014-741325
    contentID: 928725536
    Copyright: © 2014 Orion Releasing, LLC. All Rights Reserved
    Screenwriters: Тимоти Уильямс
    Producers: Кристофер Бойд, Расс Кандифф, Дж.М.Р. Люна
    Director: Дж.М.Р. Люна
    Cast: Майло Вентимилья, Кэти Сакхофф, Джейсон Ли, Роберт Патрик, Алан Тьюдик, Джон Майкл Хиггинс, Фэйзон Лав, Оскар Нунез, Питер Рейнерт, Моника Янг
    Studio: Orion
    Rating: 11
    Long Description: Мелкому мошеннику Этану Теллу удается сорвать куш в миллион долларов и оставить других с носом. Но полиция ловит его и после отсидки, он решает жить честно. Но его продолжают преследовать коррумпированные полицейские, офицер по досрочному освобождению, участники ограбления, даже жена. У всех один вопрос: "Где деньги?"
    Description: Мелкому мошеннику Этану Теллу удается сорвать куш в миллион долларов и оставить других с носом. Но полиция ловит его и после отсидки, он решает жить честно. Но его продолжают преследовать коррумпированные полицейские, офицер по досрочному освобождению, участники ограбления, даже жена. У всех один вопрос: "Где деньги?"
    Release Date: 2014-12-04T08:00:00Z
    Genre: Drama
    Artist: J.M.R. Luna
    Name: Tell

    MediaInfo

    General
    Complete name                            : /Users/imac/HandBrake/Skazhi.WEB-DL.720p.m4v
    Format                                   : MPEG-4
    Codec ID                                 : M4V
    File size                                : 2.92 GiB
    Duration                                 : 1h 28mn
    Overall bit rate mode                    : Variable
    Overall bit rate                         : 4 702 Kbps
    Movie name                               : Tell
    Performer                                : J.M.R. Luna
    Genre                                    : Drama
    Recorded date                            : UTC 2014-12-04 08:00:00
    Encoded date                             : UTC 2015-08-05 11:04:00
    Tagged date                              : UTC 2015-08-05 11:06:22
    Copyright                                : © 2014 Orion Releasing, LLC. All Rights Reserved
    Cover                                    : Yes
    sonm                                     : Tell
    desc                                     : Мелкому мошеннику Этану Теллу удается сорвать куш в миллион долларов и оставить других с носом. Но полиция ловит его и после отсидки, он решает жить честно. Но его продолжают преследовать коррумпированные полицейские, офицер по досрочному освобождению, участники ограбления, даже жена. У всех один вопрос: "Где деньги?"
    ldes                                     : Мелкому мошеннику Этану Теллу удается сорвать куш в миллион долларов и оставить других с носом. Но полиция ловит его и после отсидки, он решает жить честно. Но его продолжают преследовать коррумпированные полицейские, офицер по досрочному освобождению, участники ограбления, даже жена. У всех один вопрос: "Где деньги?"
    hdvd                                     : 1
    stik                                     : 9
    rtng                                     : 0
    cnID                                     : 928725536
    xid                                      : Apple:vendor_id:2014-741325
    iTunEXTC                                 : mpaa|R|400|
    iTunMOVI                                 : <?xml version=\"1.0\" encoding=\"UTF-8\"?> / <!DOCTYPE plist PUBLIC \"-//Apple//DTD PLIST 1.0//EN\" \"http://anonym.to/?http://www.apple.com/DTDs/PropertyList-1.0.dtd\"> / <plist version=\"1.0\"> / <dict> /  <key>cast</key> /  <array> /   <dict> /    <key>name</key> /    <string>Майло Вентимилья</string> /   </dict> /   <dict> /    <key>name</key> /    <string>Кэти Сакхофф</string> /   </dict> /   <dict> /    <key>name</key> /    <string>Джейсон Ли</string> /   </dict> /   <dict> /    <key>name</key> /    <string>Роберт Патрик</string> /   </dict> /   <dict> /    <key>name</key> /    <string>Алан Тьюдик</string> /   </dict> /   <dict> /    <key>name</key> /    <string>Джон Майкл Хиггинс</string> /   </dict> /   <dict> /    <key>name</key> /    <string>Фэйзон Лав</string> /   </dict> /   <dict> /    <key>name</key> /    <string>Оскар Нунез</string> /   </dict> /   <dict> /    <key>name</key> /    <string>Питер Рейнерт</string> /   </dict> /   <dict> /    <key>name</key> /    <string>Моника Янг</string> /   </dict> /  </array> /  <key>directors</key> /  <array> /   <dict> /    <key>name</key> /    <string>Дж.М.Р. Люна</string> /   </dict> /  </array> /  <key>producers</key> /  <array> /   <dict> /    <key>name</key> /    <string>Кристофер Бойд</string> /   </dict> /   <dict> /    <key>name</key> /    <string>Расс Кандифф</string> /   </dict> /   <dict> /    <key>name</key> /    <string>Дж.М.Р. Люна</string> /   </dict> /  </array> /  <key>screenwriters</key> /  <array> /   <dict> /    <key>name</key> /    <string>Тимоти Уильямс</string> /   </dict> /  </array> /  <key>studio</key> /  <string>Orion</string> / </dict> / </plist>
    Video #1
    ID                                       : 1
    Format                                   : AVC
    Format/Info                              : Advanced Video Codec
    Format profile                           : Main@L3.1
    Format settings, CABAC                   : No
    Format settings, ReFrames                : 2 frames
    Codec ID                                 : avc1
    Codec ID/Info                            : Advanced Video Coding
    Duration                                 : 1h 28mn
    Bit rate mode                            : Variable
    Bit rate                                 : 4 004 Kbps
    Width                                    : 1 280 pixels
    Height                                   : 528 pixels
    Display aspect ratio                     : 2.40:1
    Frame rate mode                          : Constant
    Frame rate                               : 23.976 fps
    Color space                              : YUV
    Chroma subsampling                       : 4:2:0
    Bit depth                                : 8 bits
    Scan type                                : Progressive
    Bits/(Pixel*Frame)                       : 0.247
    Stream size                              : 2.49 GiB (85%)
    Language                                 : English
    Encoded date                             : UTC 2015-08-05 11:04:00
    Tagged date                              : UTC 2015-08-05 11:04:39
    Color primaries                          : BT.709-5, BT.1361, IEC 61966-2-4, SMPTE RP177
    Transfer characteristics                 : BT.709-5, BT.1361
    Matrix coefficients                      : BT.709-5, BT.1361, IEC 61966-2-4 709, SMPTE RP177
    Video #2
    ID                                       : 7
    Format                                   : JPEG
    Codec ID                                 : jpeg
    Duration                                 : 1h 28mn
    Bit rate mode                            : Variable
    Bit rate                                 : 287 bps
    Width                                    : 640 pixels
    Height                                   : 264 pixels
    Display aspect ratio                     : 2.40:1
    Frame rate mode                          : Constant
    Frame rate                               : 0.001 fps
    Color space                              : YUV
    Chroma subsampling                       : 4:2:0
    Bit depth                                : 8 bits
    Compression mode                         : Lossy
    Bits/(Pixel*Frame)                       : 1.699
    Stream size                              : 315 KiB (0%)
    Language                                 : English
    Encoded date                             : UTC 2015-08-05 11:04:41
    Tagged date                              : UTC 2015-08-05 11:04:41
    Audio #1
    ID                                       : 2
    Format                                   : AAC
    Format/Info                              : Advanced Audio Codec
    Format profile                           : LC
    Codec ID                                 : 40
    Duration                                 : 1h 28mn
    Bit rate mode                            : Variable
    Bit rate                                 : 154 Kbps
    Maximum bit rate                         : 227 Kbps
    Channel(s)                               : 2 channels
    Channel positions                        : Front: L R
    Sampling rate                            : 48.0 KHz
    Compression mode                         : Lossy
    Stream size                              : 97.6 MiB (3%)
    Language                                 : Russian
    Encoded date                             : UTC 2015-08-05 11:04:00
    Tagged date                              : UTC 2015-08-05 11:04:05
    Audio #2
    ID                                       : 3
    Format                                   : AAC
    Format/Info                              : Advanced Audio Codec
    Format profile                           : LC
    Codec ID                                 : 40
    Duration                                 : 1h 28mn
    Bit rate mode                            : Variable
    Bit rate                                 : 154 Kbps
    Maximum bit rate                         : 233 Kbps
    Channel(s)                               : 2 channels
    Channel positions                        : Front: L R
    Sampling rate                            : 48.0 KHz
    Compression mode                         : Lossy
    Stream size                              : 97.9 MiB (3%)
    Language                                 : English
    Encoded date                             : UTC 2015-08-05 11:04:00
    Tagged date                              : UTC 2015-08-05 11:04:05
    Audio #3
    ID                                       : 4
    Format                                   : AC-3
    Format/Info                              : Audio Coding 3
    Mode extension                           : CM (complete main)
    Format settings, Endianness              : Big
    Codec ID                                 : ac-3
    Duration                                 : 1h 28mn
    Bit rate mode                            : Constant
    Bit rate                                 : 384 Kbps
    Channel(s)                               : 6 channels
    Channel positions                        : Front: L C R, Side: L R, LFE
    Sampling rate                            : 48.0 KHz
    Bit depth                                : 16 bits
    Compression mode                         : Lossy
    Stream size                              : 244 MiB (8%)
    Language                                 : English
    Encoded date                             : UTC 2015-08-05 11:04:00
    Tagged date                              : UTC 2015-08-05 11:04:04
    Text #1
    ID                                       : 5
    Format                                   : Timed text
    Muxing mode                              : sbtl
    Codec ID                                 : tx3g
    Duration                                 : 1h 28mn
    Bit rate mode                            : Variable
    Bit rate                                 : 106 bps
    Stream size                              : 68.6 KiB (0%)
    Language                                 : English
    Encoded date                             : UTC 2015-08-05 11:04:00
    Tagged date                              : UTC 2015-08-05 11:04:00
    Text #2
    ID                                       : 6
    Format                                   : Apple text
    Codec ID                                 : text
    Duration                                 : 1h 28mn
    Bit rate mode                            : Constant
    Bit rate                                 : 0 bps
    Stream size                              : 135 Bytes (0%)
    Language                                 : English
    Encoded date                             : UTC 2015-08-05 11:04:39
    Tagged date                              : UTC 2015-08-05 11:04:39
    Menu
    00:00:00.000                             : 1
    00:11:23.000                             : 2
    00:21:00.000                             : 3
    00:29:29.000                             : 4
    00:39:43.000                             : 5
    00:50:27.000                             : 6
    01:00:29.000                             : 7
    01:09:25.000                             : 8
    01:19:01.000                             : 9

    Скриншоты

    -

    Релиз подготовлен для просмотра на Apple TV, iPad, iPhone, iPod Touch.
    Для просмотра данного релиза на компьютере с ОС Windows рекомендуется использовать VLC media player
    Скачать .torrent

    Скачать торрент-файл бесплатно и на максимальной скорости!

    Как скачивать? · Что такое торрент? · Рейтинг и ограничения

    !ВНИМАНИЕ!
    Сайт не распространяет и не хранит электронные версии произведений, а занимается лишь лишь предоставлением доступа к создаваемому пользователями каталогу ссылок на торрент-файлы, которые содержат только списки хеш-сумм, убедительная просьба с жалобами обращаться напрямую к пользователю. Файлы для обмена на трекере предоставлены пользователями сайта, и администрация не несёт ответственности за их содержание. Просьба не заливать файлы, защищенные авторскими правами, а также файлы нелегального содержания!


    _________________
    [Профиль] [ЛС]
    Показать сообщения:    
    Ответить на тему

    Текущее время: Сегодня, в 14:26

    Часовой пояс: GMT + 2



    Вы не можете начинать темы
    Вы не можете отвечать на сообщения
    Вы не можете редактировать свои сообщения
    Вы не можете удалять свои сообщения
    Вы не можете голосовать в опросах
    Вы не можете прикреплять файлы к сообщениям
    Вы не можете скачивать файлы