BitTorrentTracker PerecTracker.org
BitTorrentTracker PerecTracker.org
    
Регистрация  ·  Вход
 
 · 
Забыли пароль?

  • Профессор Мамлок (Герберт Раппапорт, Адольф Минкин) [1938, исторический, социальная драма, экранизация, SATRip]

    Ответить на тему
     
    Автор Сообщение

    Light

    Создавать темы 05-Авг-2015 04:10

           

    [Цитировать]

    Профессор МамлокГод выпуска: 1938.
    Жанр: исторический, социальная драма, экранизация.
    Продолжительность: 01:39:25.
    Режиссеры: Герберт Раппапорт, Адольф Минкин.
    В ролях:
    Семен Межинский, С. Никитина, Олег Жаков, Владимир Честноков, Борис Светлов, Нина Шатерникова, Исай Зонне, М. Тагионосова, Валентин Киселёв, Юрий Толубеев, Георгий Бударов, Петр Кириллов, Анна Заржицкая, Сергей Рябинкин, Наталья Фаусек, Татьяна Гурецкая, Василий Меркурьев, Владимир Таскин, Яков Малютин, Борис Шлихтинг, Георгий Самойлов, Павел Суханов, М. Шелковский, Борис Феодосьев.
    Описание:
    Экранизация одноименной пьесы немецкого писателя-антифашиста Фридриха Вольфа о социальном прозрении далекого от политики немецкого ученого-гуманиста под воздействием политических событий в Германии 1930-х годов.
    Доп. информация:
    Страна: СССР .
    Киностудия: Ленфильм.
    Премьера: 5 сентября 1938 года.
    Авторы сценария: Фридрих Вольф, Адольф Минкин, Герберт Раппапорт.
    Оператор: Георгий Филатов.
    Композитор: Юрий Кочуров.
    Художник: Павел Бетаки.

    Еще постеры

    Релиз
    Рип с этой раздачи.
    Большое спасибо Cheef mate за предоставленый материал для рипа!!!

    Качество: SATRip
    Формат: AVI
    Видео: 640x496 (1.29:1), 25 fps, XviD build 73 ~921 kbps avg, 0.12 bit/pixel
    Аудио: 48 kHz, MPEG Layer 3, 2 ch, ~128.00 kbps avg

    Отчет MI

    General
    Complete name : Professor.Mamlok.1938.XviD.SATRip_753.avi
    Format : AVI
    Format/Info : Audio Video Interleave
    File size : 753 MiB
    Duration : 1h 39mn
    Overall bit rate : 1 059 Kbps
    Writing application : VirtualDubMod 1.5.10.3 | www.virtualdub-fr.org || (build 2550/release)
    Writing library : VirtualDubMod build 2550/release
    Video
    ID : 0
    Format : MPEG-4 Visual
    Format profile : Advanced Simple@L5
    Format settings, BVOP : 2
    Format settings, QPel : No
    Format settings, GMC : No warppoints
    Format settings, Matrix : Custom
    Codec ID : XVID
    Codec ID/Hint : XviD
    Duration : 1h 39mn
    Bit rate : 921 Kbps
    Width : 640 pixels
    Height : 496 pixels
    Display aspect ratio : 1.290
    Frame rate : 25.000 fps
    Color space : YUV
    Chroma subsampling : 4:2:0
    Bit depth : 8 bits
    Scan type : Progressive
    Compression mode : Lossy
    Bits/(Pixel*Frame) : 0.116
    Stream size : 655 MiB (87%)
    Writing library : XviD 73
    Audio
    ID : 1
    Format : MPEG Audio
    Format version : Version 1
    Format profile : Layer 3
    Codec ID : 55
    Codec ID/Hint : MP3
    Duration : 1h 39mn
    Bit rate mode : Constant
    Bit rate : 128 Kbps
    Channel(s) : 2 channels
    Sampling rate : 48.0 KHz
    Compression mode : Lossy
    Stream size : 91.0 MiB (12%)
    Alignment : Aligned on interleaves
    Interleave, duration : 40 ms (1.00 video frame)
    Interleave, preload duratio : 504 ms
    Writing library : LAME3.99r
    Encoding settings : -m s -V 4 -q 2 -lowpass 17 -b 128
    Скриншоты

    Альтернативный хост

    Скачать .torrent

    Скачать торрент-файл бесплатно и на максимальной скорости!

    Как скачивать? · Что такое торрент? · Рейтинг и ограничения

    !ВНИМАНИЕ!
    Сайт не распространяет и не хранит электронные версии произведений, а занимается лишь лишь предоставлением доступа к создаваемому пользователями каталогу ссылок на торрент-файлы, которые содержат только списки хеш-сумм, убедительная просьба с жалобами обращаться напрямую к пользователю. Файлы для обмена на трекере предоставлены пользователями сайта, и администрация не несёт ответственности за их содержание. Просьба не заливать файлы, защищенные авторскими правами, а также файлы нелегального содержания!


    _________________
    [Профиль] [ЛС]
    Показать сообщения:    
    Ответить на тему

    Текущее время: Сегодня, в 18:21

    Часовой пояс: GMT + 2



    Вы не можете начинать темы
    Вы не можете отвечать на сообщения
    Вы не можете редактировать свои сообщения
    Вы не можете удалять свои сообщения
    Вы не можете голосовать в опросах
    Вы не можете прикреплять файлы к сообщениям
    Вы не можете скачивать файлы