BitTorrentTracker PerecTracker.org
BitTorrentTracker PerecTracker.org
    
Регистрация  ·  Вход
 
 · 
Забыли пароль?

  • [ATV3] Дивергент, глава 2: Инсургент / Insurgent (Роберт Швентке / Robert Schwentke ) [2015, США, Фантастика, триллер, приключения, BDRip, HD (1080p)] DUB + Original + sub (rus, eng)

    Ответить на тему
     
    Автор Сообщение

    rechyn

    Создавать темы 05-Авг-2015 04:10

           

    [Цитировать]

    Дивергент, глава 2: Инсургент / Insurgent
    «В этом мире пора что-то менять»
    6.309 / 10 6.50 / 10
    -Год выпуска: 2015
    Страна: США
    Жанр: Фантастика, триллер, приключения
    Продолжительность: 01:59:00
    Перевод: Дублированный (iTunes)
    Оригинальная аудиодорожка: Есть
    Cубтитры: Русские, Английские, Английские SDH
    Режиссёр: Роберт Швентке
    Сценарий: Брайан Даффилд, Акива Голдсман, Марк Бомбэк
    Продюсер: Люси Фишер, Пуйа Шахбазян, Дуглас Уик
    Оператор: Флориан Баллхаус
    Композитор: Джозеф Трапанезе
    Художник: Алек Хэммонд, Алан Хук, Джей Пелиссье
    Монтаж: Стюарт Леви, Нэнси Ричардсон
    В ролях: Шейлин Вудли, Тео Джеймс, Кейт Уинслет, Джай Кортни, Энсел Элгорт, Майлз Теллер, Зои Кравиц, Мекхай Файфер, Наоми Уоттс, Октавия Спенсер
    Бюджет: $110 000 000
    Сборы в США: $130 179 072
    Сборы в мире: + $165 059 129 = $295 238 201
    Сборы в России: $9 749 740
    Мировая премьера: 11 марта 2015
    Премьера (РФ): 19 марта 2015, «Централ Партнершип»
    Описание: В новой главе антиутопии об обществе, где все расставлено по полочкам, а любая индивидуальность подлежит искоренению, Трис должна найти способ борьбы со страшной системой, уничтожающей ее близких. Кто из них на очереди? Она узнает все больше страшных подробностей, стоящих за кажущимся порядком, и уже не может не видеть, что в ее мире пора что-то менять. Но главное в этой борьбе — справиться с расколом, который враг порождает в ее собственной душе.-Качество исходника: BDRemux (HDClub)
    Качество: BDRip
    Тип: HD (1080p)
    Контейнер: M4V
    Видео: H.264, 1920x800, 2.40:1, 8 000 Kbps, 23.976 fps
    Аудио 1: Русский/Дублированный (iTunes), AAC / 2.0 / 157 Kbps / 48.0 KHz
    Аудио 2: Английский/Оригинальная дорожка , AAC / 2.0 / 157 Kbps / 48.0 KHz
    Аудио 3: Русский/Дублированный (iTunes), AC-3 / 5.1 / 640 Kbps / 48.0 KHz
    Аудио 4: Английский/Оригинальная дорожка , AC-3 / 5.1 / 640 Kbps / 48.0 KHz
    Субтитры 1: Русские полные
    Субтитры 2: Английские полные
    Субтитры 3: Английские SDH
    -

    iTunes Meta Tags

    Sort Name: Divergent Series: Insurgent
    XID: Apple:vendor_id:2015-762225
    contentID: 972241187
    Screenwriters: Брайан Даффилд, Акива Голдсман, Марк Бомбэк
    Producers: Люси Фишер, Пуйа Шахбазян, Дуглас Уик
    Director: Роберт Швентке
    Cast: Шейлин Вудли, Тео Джеймс, Кейт Уинслет, Джай Кортни, Энсел Элгорт, Майлз Теллер, Зои Кравиц, Мекхай Файфер, Наоми Уоттс, Октавия Спенсер
    Studio: Summit Entertainment
    Rating Annotation: Rated PG-13 for intense violence and action throughout, some sexuality, thematic elements and brief language.
    Rating: 10
    Long Description: В новой главе антиутопии об обществе, где все расставлено по полочкам, а любая индивидуальность подлежит искоренению, Трис должна найти способ борьбы со страшной системой, уничтожающей ее близких. Кто из них на очереди? Она узнает все больше страшных подробностей, стоящих за кажущимся порядком, и уже не может не видеть, что в ее мире пора что-то менять. Но главное в этой борьбе - справиться с расколом, который враг порождает в ее собственной душе.
    Description: В новой главе антиутопии об обществе, где все расставлено по полочкам, а любая индивидуальность подлежит искоренению, Трис должна найти способ борьбы со страшной системой, уничтожающей ее близких. Кто из них на очереди?...
    Release Date: 2015-03-11T08:00:00Z
    Genre: Action & Adventure
    Artist: Robert Schwentke
    Name: The Divergent Series: Insurgent

    MediaInfo

    General
    Complete name                            : /Users/imac/HandBrake/The Divergent Series- Insurgent (1080p HD).m4v
    Format                                   : MPEG-4
    Codec ID                                 : M4V
    File size                                : 7.98 GiB
    Duration                                 : 1h 59mn
    Overall bit rate mode                    : Variable
    Overall bit rate                         : 9 602 Kbps
    Movie name                               : The Divergent Series: Insurgent
    Performer                                : Robert Schwentke
    Genre                                    : Action & Adventure
    Recorded date                            : UTC 2015-03-11 08:00:00
    Encoded date                             : UTC 2015-08-04 20:35:24
    Tagged date                              : UTC 2015-08-04 20:39:24
    Cover                                    : Yes
    sonm                                     : Divergent Series: Insurgent
    desc                                     : В новой главе антиутопии об обществе, где все расставлено по полочкам, а любая индивидуальность подлежит искоренению, Трис должна найти способ борьбы со страшной системой, уничтожающей ее близких. Кто из них на очереди?...
    ldes                                     : В новой главе антиутопии об обществе, где все расставлено по полочкам, а любая индивидуальность подлежит искоренению, Трис должна найти способ борьбы со страшной системой, уничтожающей ее близких. Кто из них на очереди? Она узнает все больше страшных подробностей, стоящих за кажущимся порядком, и уже не может не видеть, что в ее мире пора что-то менять. Но главное в этой борьбе - справиться с расколом, который враг порождает в ее собственной душе.
    hdvd                                     : 2
    stik                                     : 9
    rtng                                     : 0
    cnID                                     : 972241187
    xid                                      : Apple:vendor_id:2015-762225
    iTunEXTC                                 : mpaa|PG-13|300|Rated PG-13 for intense violence and action throughout, some sexuality, thematic elements and brief language.
    iTunMOVI                                 : <?xml version=\"1.0\" encoding=\"UTF-8\"?> / <!DOCTYPE plist PUBLIC \"-//Apple//DTD PLIST 1.0//EN\" \"http://anonym.to/?http://www.apple.com/DTDs/PropertyList-1.0.dtd\"> / <plist version=\"1.0\"> / <dict> /  <key>cast</key> /  <array> /   <dict> /    <key>name</key> /    <string>Шейлин Вудли</string> /   </dict> /   <dict> /    <key>name</key> /    <string>Тео Джеймс</string> /   </dict> /   <dict> /    <key>name</key> /    <string>Кейт Уинслет</string> /   </dict> /   <dict> /    <key>name</key> /    <string>Джай Кортни</string> /   </dict> /   <dict> /    <key>name</key> /    <string>Энсел Элгорт</string> /   </dict> /   <dict> /    <key>name</key> /    <string>Майлз Теллер</string> /   </dict> /   <dict> /    <key>name</key> /    <string>Зои Кравиц</string> /   </dict> /   <dict> /    <key>name</key> /    <string>Мекхай Файфер</string> /   </dict> /   <dict> /    <key>name</key> /    <string>Наоми Уоттс</string> /   </dict> /   <dict> /    <key>name</key> /    <string>Октавия Спенсер</string> /   </dict> /  </array> /  <key>directors</key> /  <array> /   <dict> /    <key>name</key> /    <string>Роберт Швентке</string> /   </dict> /  </array> /  <key>producers</key> /  <array> /   <dict> /    <key>name</key> /    <string>Люси Фишер</string> /   </dict> /   <dict> /    <key>name</key> /    <string>Пуйа Шахбазян</string> /   </dict> /   <dict> /    <key>name</key> /    <string>Дуглас Уик</string> /   </dict> /  </array> /  <key>screenwriters</key> /  <array> /   <dict> /    <key>name</key> /    <string>Брайан Даффилд</string> /   </dict> /   <dict> /    <key>name</key> /    <string>Акива Голдсман</string> /   </dict> /   <dict> /    <key>name</key> /    <string>Марк Бомбэк</string> /   </dict> /  </array> /  <key>studio</key> /  <string>Summit Entertainment</string> / </dict> / </plist>
    Video #1
    ID                                       : 1
    Format                                   : AVC
    Format/Info                              : Advanced Video Codec
    Format profile                           : High@L4.0
    Format settings, CABAC                   : Yes
    Format settings, ReFrames                : 4 frames
    Codec ID                                 : avc1
    Codec ID/Info                            : Advanced Video Coding
    Duration                                 : 1h 59mn
    Bit rate mode                            : Variable
    Bit rate                                 : 8 000 Kbps
    Width                                    : 1 920 pixels
    Height                                   : 800 pixels
    Display aspect ratio                     : 2.40:1
    Frame rate mode                          : Variable
    Frame rate                               : 23.976 fps
    Minimum frame rate                       : 23.810 fps
    Maximum frame rate                       : 24.272 fps
    Color space                              : YUV
    Chroma subsampling                       : 4:2:0
    Bit depth                                : 8 bits
    Scan type                                : Progressive
    Bits/(Pixel*Frame)                       : 0.217
    Stream size                              : 6.65 GiB (83%)
    Writing library                          : x264 core 142 r2479 dd79a61
    Encoding settings                        : cabac=1 / ref=4 / deblock=1:-2:-2 / analyse=0x3:0x133 / me=umh / subme=10 / psy=1 / psy_rd=1.00:0.15 / mixed_ref=1 / me_range=32 / chroma_me=1 / trellis=2 / 8x8dct=1 / cqm=0 / deadzone=21,11 / fast_pskip=0 / chroma_qp_offset=-3 / threads=36 / lookahead_threads=6 / sliced_threads=0 / nr=0 / decimate=0 / interlaced=0 / bluray_compat=0 / constrained_intra=0 / bframes=16 / b_pyramid=2 / b_adapt=2 / b_bias=0 / direct=3 / weightb=1 / open_gop=0 / weightp=2 / keyint=240 / keyint_min=24 / scenecut=40 / intra_refresh=0 / rc_lookahead=60 / rc=2pass / mbtree=1 / bitrate=8000 / ratetol=1.0 / qcomp=0.70 / qpmin=0 / qpmax=69 / qpstep=4 / cplxblur=20.0 / qblur=0.5 / vbv_maxrate=25000 / vbv_bufsize=25000 / nal_hrd=none / filler=0 / ip_ratio=1.40 / aq=1:1.00
    Language                                 : English
    Encoded date                             : UTC 2015-08-04 20:35:24
    Tagged date                              : UTC 2015-08-04 20:35:37
    Color primaries                          : BT.709-5, BT.1361, IEC 61966-2-4, SMPTE RP177
    Transfer characteristics                 : BT.709-5, BT.1361
    Matrix coefficients                      : BT.709-5, BT.1361, IEC 61966-2-4 709, SMPTE RP177
    Video #2
    ID                                       : 10
    Format                                   : JPEG
    Codec ID                                 : jpeg
    Duration                                 : 1h 59mn
    Bit rate mode                            : Variable
    Bit rate                                 : 624 bps
    Width                                    : 640 pixels
    Height                                   : 266 pixels
    Display aspect ratio                     : 2.40:1
    Frame rate mode                          : Variable
    Frame rate                               : 0.002 fps
    Minimum frame rate                       : 0.001 fps
    Maximum frame rate                       : 0.003 fps
    Color space                              : YUV
    Chroma subsampling                       : 4:2:0
    Bit depth                                : 8 bits
    Compression mode                         : Lossy
    Bits/(Pixel*Frame)                       : 1.833
    Stream size                              : 609 KiB (0%)
    Language                                 : English
    Encoded date                             : UTC 2015-08-04 20:35:53
    Tagged date                              : UTC 2015-08-04 20:35:53
    Audio #1
    ID                                       : 2
    Format                                   : AAC
    Format/Info                              : Advanced Audio Codec
    Format profile                           : LC
    Codec ID                                 : 40
    Duration                                 : 1h 59mn
    Bit rate mode                            : Variable
    Bit rate                                 : 157 Kbps
    Maximum bit rate                         : 244 Kbps
    Channel(s)                               : 2 channels
    Channel positions                        : Front: L R
    Sampling rate                            : 48.0 KHz
    Compression mode                         : Lossy
    Stream size                              : 133 MiB (2%)
    Language                                 : Russian
    Encoded date                             : UTC 2015-08-04 20:35:24
    Tagged date                              : UTC 2015-08-04 20:35:42
    Audio #2
    ID                                       : 3
    Format                                   : AAC
    Format/Info                              : Advanced Audio Codec
    Format profile                           : LC
    Codec ID                                 : 40
    Duration                                 : 1h 59mn
    Bit rate mode                            : Variable
    Bit rate                                 : 157 Kbps
    Maximum bit rate                         : 266 Kbps
    Channel(s)                               : 2 channels
    Channel positions                        : Front: L R
    Sampling rate                            : 48.0 KHz
    Compression mode                         : Lossy
    Stream size                              : 134 MiB (2%)
    Language                                 : English
    Encoded date                             : UTC 2015-08-04 20:35:24
    Tagged date                              : UTC 2015-08-04 20:35:42
    Audio #3
    ID                                       : 4
    Format                                   : AC-3
    Format/Info                              : Audio Coding 3
    Mode extension                           : CM (complete main)
    Format settings, Endianness              : Big
    Codec ID                                 : ac-3
    Duration                                 : 1h 59mn
    Bit rate mode                            : Constant
    Bit rate                                 : 640 Kbps
    Channel(s)                               : 6 channels
    Channel positions                        : Front: L C R, Side: L R, LFE
    Sampling rate                            : 48.0 KHz
    Bit depth                                : 16 bits
    Compression mode                         : Lossy
    Stream size                              : 545 MiB (7%)
    Language                                 : Russian
    Encoded date                             : UTC 2015-08-04 20:35:24
    Tagged date                              : UTC 2015-08-04 20:35:38
    Audio #4
    ID                                       : 5
    Format                                   : AC-3
    Format/Info                              : Audio Coding 3
    Mode extension                           : CM (complete main)
    Format settings, Endianness              : Big
    Codec ID                                 : ac-3
    Duration                                 : 1h 59mn
    Bit rate mode                            : Constant
    Bit rate                                 : 640 Kbps
    Channel(s)                               : 6 channels
    Channel positions                        : Front: L C R, Side: L R, LFE
    Sampling rate                            : 48.0 KHz
    Bit depth                                : 16 bits
    Compression mode                         : Lossy
    Stream size                              : 545 MiB (7%)
    Language                                 : English
    Encoded date                             : UTC 2015-08-04 20:35:24
    Tagged date                              : UTC 2015-08-04 20:35:38
    Text #1
    ID                                       : 6
    Format                                   : Timed text
    Muxing mode                              : sbtl
    Codec ID                                 : tx3g
    Duration                                 : 1h 47mn
    Bit rate mode                            : Variable
    Bit rate                                 : 84 bps
    Stream size                              : 66.8 KiB (0%)
    Language                                 : Russian
    Encoded date                             : UTC 2015-08-04 20:35:24
    Tagged date                              : UTC 2015-08-04 20:35:39
    Text #2
    ID                                       : 7
    Format                                   : Timed text
    Muxing mode                              : sbtl
    Codec ID                                 : tx3g
    Duration                                 : 1h 47mn
    Bit rate mode                            : Variable
    Bit rate                                 : 52 bps
    Stream size                              : 41.2 KiB (0%)
    Language                                 : English
    Encoded date                             : UTC 2015-08-04 20:35:24
    Tagged date                              : UTC 2015-08-04 20:35:39
    Text #3
    ID                                       : 8
    Format                                   : Timed text
    Muxing mode                              : sbtl
    Codec ID                                 : tx3g
    Duration                                 : 1h 47mn
    Bit rate mode                            : Variable
    Bit rate                                 : 58 bps
    Stream size                              : 46.0 KiB (0%)
    Language                                 : English
    Encoded date                             : UTC 2015-08-04 20:35:24
    Tagged date                              : UTC 2015-08-04 20:35:39
    Text #4
    ID                                       : 9
    Format                                   : Apple text
    Codec ID                                 : text
    Duration                                 : 1h 59mn
    Bit rate mode                            : Constant
    Bit rate                                 : 0 bps
    Stream size                              : 416 Bytes (0%)
    Language                                 : English
    Encoded date                             : UTC 2015-08-04 20:35:42
    Tagged date                              : UTC 2015-08-04 20:35:42
    Menu
    00:00:00.000                             : 00:00:00.000
    00:06:11.288                             : 00:06:11.288
    00:13:35.398                             : 00:13:35.398
    00:19:35.007                             : 00:19:35.007
    00:26:39.431                             : 00:26:39.431
    00:34:23.061                             : 00:34:23.061
    00:41:13.846                             : 00:41:13.846
    00:46:34.708                             : 00:46:34.708
    00:53:10.103                             : 00:53:10.103
    00:59:30.358                             : 00:59:30.358
    01:05:59.664                             : 01:05:59.664
    01:13:34.910                             : 01:13:34.910
    01:22:57.931                             : 01:22:57.931
    01:32:04.936                             : 01:32:04.936
    01:39:09.360                             : 01:39:09.360
    01:46:38.642                             : 01:46:38.642

    x264 лог

    x264 [info]: frame I:1124  Avg QP:13.20  size:172174
    x264 [info]: frame P:48236 Avg QP:16.63  size: 68754
    x264 [info]: frame B:121838 Avg QP:17.39  size: 29780
    x264 [info]: consecutive B-frames:  6.0%  6.3% 17.7% 21.5% 15.3% 29.4%  2.5%  0.4%  0.3%  0.2%  0.1%  0.0%  0.1%  0.0%  0.0%  0.0%  0.2%
    x264 [info]: mb I  I16..4: 17.8% 56.1% 26.1%
    x264 [info]: mb P  I16..4:  5.0% 25.2%  3.4%  P16..4: 31.0% 14.1%  9.4%  0.6%  0.2%    skip:11.1%
    x264 [info]: mb B  I16..4:  1.4%  4.7%  0.5%  B16..8: 32.5% 11.5%  2.7%  direct:10.6%  skip:36.1%  L0:41.1% L1:41.0% BI:18.0%
    x264 [info]: 8x8 transform intra:72.9% inter:43.5%
    x264 [info]: direct mvs  spatial:96.4% temporal:3.6%
    x264 [info]: coded y,uvDC,uvAC intra: 78.3% 79.0% 62.0% inter: 27.5% 29.2% 13.1%
    x264 [info]: i16 v,h,dc,p: 36% 15% 19% 30%
    x264 [info]: i8 v,h,dc,ddl,ddr,vr,hd,vl,hu: 14% 11% 22%  7%  8%  9%  8% 10% 10%
    x264 [info]: i4 v,h,dc,ddl,ddr,vr,hd,vl,hu: 15% 12% 14%  8% 11% 11% 11%  9% 10%
    x264 [info]: i8c dc,h,v,p: 55% 18% 19%  8%
    x264 [info]: Weighted P-Frames: Y:2.2% UV:1.0%
    x264 [info]: ref P L0: 54.2%  9.5% 25.0%  9.6%  1.8%  0.0%
    x264 [info]: ref B L0: 82.2% 14.5%  3.3%
    x264 [info]: ref B L1: 91.4%  8.6%
    x264 [info]: kb/s:7997.61

    Скриншоты

    -

    Релиз подготовлен для просмотра на Apple TV, iPad, iPhone, iPod Touch.
    Для просмотра данного релиза на компьютере с ОС Windows рекомендуется использовать VLC media player
    Скачать .torrent

    Скачать торрент-файл бесплатно и на максимальной скорости!

    Как скачивать? · Что такое торрент? · Рейтинг и ограничения

    !ВНИМАНИЕ!
    Сайт не распространяет и не хранит электронные версии произведений, а занимается лишь лишь предоставлением доступа к создаваемому пользователями каталогу ссылок на торрент-файлы, которые содержат только списки хеш-сумм, убедительная просьба с жалобами обращаться напрямую к пользователю. Файлы для обмена на трекере предоставлены пользователями сайта, и администрация не несёт ответственности за их содержание. Просьба не заливать файлы, защищенные авторскими правами, а также файлы нелегального содержания!


    _________________
    [Профиль] [ЛС]
    Показать сообщения:    
    Ответить на тему

    Текущее время: Сегодня, в 00:06

    Часовой пояс: GMT + 2



    Вы не можете начинать темы
    Вы не можете отвечать на сообщения
    Вы не можете редактировать свои сообщения
    Вы не можете удалять свои сообщения
    Вы не можете голосовать в опросах
    Вы не можете прикреплять файлы к сообщениям
    Вы не можете скачивать файлы