BitTorrentTracker PerecTracker.org
BitTorrentTracker PerecTracker.org
    
Регистрация  ·  Вход
 
 · 
Забыли пароль?

  • Что гложет Гилберта Грейпа? / What\'s Eating Gilbert Grape (Лассе Халльстрём) [1993, США, драма, BDRip HD (720), SD (480p)] DVO, Original + SUB (rus, eng)

    Ответить на тему
     
    Автор Сообщение

    rechyn

    Создавать темы 04-Авг-2015 08:22

           

    [Цитировать]

    Что гложет Гилберта Грейпа? / What's Eating Gilbert Grape
    "Living in Endora is like dancing to no music"
    8.007 / 10
    -Год выпуска: 1993
    Страна: США
    Жанр: драма
    Продолжительность: 118 мин.
    Перевод: Двухголосый закадровый перевод
    Оригинальная аудиодорожка: Есть
    Cубтитры: Русские полные и английские полные
    Режиссёр: Лассе Халльстрём
    Сценарий: Питер Хеджес
    Продюсер: Дэвид Маталон, Бертил Олссон, Мейр Тепер
    Оператор: Свен Нюквист
    Композитор: Бьёрн Исфельт, Алан Паркер
    Художник: Бернт Амадеус Капра, Джон Мир, Рени Эрлих Калфус
    Монтаж: Эндрю Мондшейн
    В ролях: Джонни Депп, Леонардо ДиКаприо, Джульетт Льюис, Мэри Стинберген, Дарлен Кэйтс, Лора Хэррингтон, Мэри Кейт Шеллхардт, Кевин Тай, Джон Си Райли, Криспин Гловер
    Бюджет: $11 000 000
    Сборы в США: $10 032 765
    Мировая премьера: 17 декабря 1993
    Релиз на DVD: 22 марта 2005, Videogram
    Описание: Гилберт Грейп живет в штате Айова, в крошечном городке с населением в тысячу жителей. У него две сестры, слабоумный брат и толстуха-мать. Гилберт тянет лямку в магазине и крутит роман с замужней дамой. Но все меняется, когда в городок приезжает красивая молодая женщина по имени Беки.-Качество исходника: BD-Remux 1080p (HDClub)
    Качество: BDRip
    Тип: 480p 720p
    Контейнер: m4v
    Видео: 640x480 анаморф 852x480 at 23.976 fps, MPEG-4 AVC, ~1800 kbps avg
    Видео: 1280x720 at 23.976 fps, MPEG-4 AVC, ~7000 kbps avg
    Аудио#1: Russian: 48 kHz, ААС, 2/0 (L,R), ~128.00 / 192.00 kbps avg |Двухголосый закадровый, А. Градов с подругой|
    Аудио#2: Russian: 48 kHz, ААС, 2/0 (L,R), ~128.00 / 192.00 kbps avg |Двухголосый закадровый|
    Аудио#3: Ukrainian: 48 kHz, ААС, 2/0 (L,R), ~128.00 / 192.00 kbps avg |Многоголосый закадровый,1+1|
    Аудио#4: Ukrainian: 48 kHz, ААС, 2/0 (L,R), ~128.00 / 192.00 kbps avg |Многоголосый закадровый,K1|
    Аудио#5: English: 48 kHz, ААС, 2/0 (L,R), ~128.00 / 192.00 kbps avg
    Аудио#6: Russian: 48 kHz, AC3, 3/2 (L,C,R,l,r) + LFE ch, ~384.00 kbps avg |Двухголосый закадровый, А. Градов с подругой|
    Аудио#7: English: 48 kHz, AC3, 3/2 (L,C,R,l,r) + LFE ch, ~640.00 kbps avg
    Субтитры №1: Russian: |Полные|
    Субтитры №2: English: |Полные|-

    Знаете ли Вы, что...
  • Фильм снят по мотивам романа Питера Хеджеса «Что гложет Гилберта Грейпа?» (What`s Eating Gilbert Grape, 1991).
  • Режиссер Лассе Халльстрём поначалу счел ДиКаприо слишком симпатичным для роли неопрятного Арни, поэтому Лео пришлось намеренно себя «изуродовать» для образа. Он подстригся «под горшок» и носил специальный зубной протез, искривляющий линию рта.
  • Джонни Депп очень переживал, что по сюжету ему необходимо говорить много гадостей в адрес «мамы», роль которой исполняла Дарлен Кэйтс. Поэтому по окончании съёмок он постоянно извинялся перед ней.
  • Депп лично выбрал Леонардо ДиКаприо на роль своего брата из многих молодых претендентов.
  • Фотография молодой миссис Грейп — это настоящая фотография Дарлен Кэйтс в молодости.
  • Во время съёмок фильма Джонни Депп находился в затяжной депрессии – переживал громкий разрыв с актрисой Вайноной Райдер.
  • Чтобы достовернее сыграть умственно отсталого, Леонардо ДиКаприо несколько дней провел в психиатрической клинике вместе с детьми с таким же недугом.
  • Дарлен Кэйтс, сыгравшая маму главных героев до этого фильма не снималась в кино. Лассе Халльстрём пригласил ее, после того как увидел в ток-шоу, которое было посвящено ожирению.
  • Из-за роли Арни, Леонардо ДиКаприо отказался сниматься в комедии «Фокус-Покус» (1993), за которую ему обещали гораздо более крупный гонорар.

    из книги «3500 кинорецензий»


    Трагикомическая мелодрама (Сергей Кудрявцев 8/10)
    Горько-щемящая американская лента 47-летнего шведского режиссёра Лассе Халльстрёма, вторая по счёту из сделанных им в США, была поставлена по сценарию и роману всего лишь 31-летнего Питера Хеджиса (родом из штата Айова) и рассказывает про жизнь в захолустном городишке Эндоре где-то на просторах США. Картина «Что гложет Гилберта Грейпа?», несомненно, перекликается с «Аризонской мечтой» Эмира Кустурицы, где Джонни Депп годом ранее тоже сыграл молодого парня, который пытался вырваться за пределы надоевшего провинциального существования. И как гласит рекламный слоган фильма Халльстрёма, «жизнь — худшее, что можно проспать».
    Гилберта Грейпа, прежде всего, достаёт и снедает, говоря философски, ощущение бессмысленности бытия. Он вынужден работать в местной бакалейной лавке, чтобы содержать семью, состоящую из больной мамаши Бонни, которая раздулась до невообразимых размеров и вообще не может выходить из комнаты, а также младшего брата Арни, подростка с заторможенной психикой, и двух юных сестёр Эми и Эллен. Когда же в богом забытой Эндоре, где, казалось бы, никогда ничего не могло вообще произойти, однажды застряли проезжавшие мимо на машине девушка Бекки со своей бабушкой, то Гилберт не только влюбился в эту как бы «инопланетянку», но и испытал непреодолимое желание сбежать прочь от унылой и беспросветной жизни. Однако можно ли окончательно порвать с «ненавистными родственничками», если всё-таки жалеешь их и не без чувства стыда почему-то продолжаешь любить?!
    Весьма любопытно теперь взглянуть на совсем юного Леонардо Ди Каприо (правда, ему было во время съёмок уже 18 лет), который за исполнение роли Арни, совершающего подчас странные поступки, удостоился номинаций на «Оскар» и «Золотой глобус», убедив многих (и даже кинопрофессионалов, включая, например, знаменитого актёра Марлона Брандо), что на самом деле страдает в своей реальной жизни задержкой в психическом развитии.
    2000/2007

    -

    iTunes Meta Tags for country us

    Name: What's Eating Gilbert Grape
    Artist: Lasse Hallström
    Genre: Drama
    Release Date: 1993-12-17T08:00:00Z
    Description: Гилберт Грейп живет в штате Айова, в крошечном городке с населением в тысячу жителей. У него две сестры, слабоумный брат и толстуха-мать. Гилберт тянет лямку в магазине и крутит роман с замужней дамой. Но все меняется, когда в городок приезжает красивая молодая женщина по имени Беки.
    Long Description: Гилберт Грейп живет в штате Айова, в крошечном городке с населением в тысячу жителей. У него две сестры, слабоумный брат и толстуха-мать. Гилберт тянет лямку в магазине и крутит роман с замужней дамой. Но все меняется, когда в городок приезжает красивая молодая женщина по имени Беки.
    Rating: PG-13
    Rating Annotation: Rated PG-13 For elements of mature subject matter.
    Studio: Paramount
    Cast: Джонни Депп, Леонардо ДиКаприо, Джульетт Льюис, Мэри Стинберген, Дарлен Кэйтс, Лора Хэррингтон, Мэри Кейт Шеллхардт, Кевин Тай, Джон Си Райли, Криспин Гловер
    Director: Лассе Халльстрём
    Producers: Дэвид Маталон, Бертил Олссон, Мейр Тепер
    Screenwriters: Питер Хеджес
    Copyright: © TM & Copyright 2007 by Paramount Pictures. All Rights Reserved.
    contentID: 270458682
    XID: Apple:vendor_id:1993-4466
    Sort Name: What's Eating Gilbert Grape

    MediaInfo 480p Release

    General
    Complete name : /What's Eating Gilbert Grape.m4v
    Format : MPEG-4
    Codec ID : M4V
    File size : 1.98 GiB
    Duration : 1h 58mn
    Overall bit rate mode : Variable
    Overall bit rate : 2 400 Kbps
    Movie name : What's Eating Gilbert Grape
    Performer : Lasse Hallström
    Director : Лассе Халльстрём
    Actor : Джонни Депп / Леонардо ДиКаприо / Джульетт Льюис / Мэри Стинберген / Дарлен Кэйтс / Лора Хэррингтон / Мэри Кейт Шеллхардт / Кевин Тай / Джон Си Райли / Криспин Гловер
    Screenplay by : Питер Хеджес
    Producer : Дэвид Маталон / Бертил Олссон / Мейр Тепер
    Production studio : Paramount
    Genre : Drama
    ContentType : Short Film
    Description : Гилберт Грейп живет в штате Айова, в крошечном городке с населением в тысячу жителей. У него две сестры, слабоумный брат и толстуха-мать. Гилберт тянет лямку в магазине и крутит роман с замужней дамой. Но все меняется, когда в городок приезжает красивая молодая женщина по имени Беки.
    Recorded date : UTC 1993-12-17 08:00:00
    Encoded date : UTC 2015-08-03 09:48:18
    Tagged date : UTC 2015-08-03 12:16:53
    Copyright : © TM & Copyright 2007 by Paramount Pictures. All Rights Reserved.
    Cover : Yes
    Rating : None
    Title/Sort : What's Eating Gilbert Grape
    LongDescription : Гилберт Грейп живет в штате Айова, в крошечном городке с населением в тысячу жителей. У него две сестры, слабоумный брат и толстуха-мать. Гилберт тянет лямку в магазине и крутит роман с замужней дамой. Но все меняется, когда в городок приезжает красивая молодая женщина по имени Беки.
    AppleStoreCatalogID : 270458682
    Vendor : Apple:vendor_id:1993-4466
    ContentRating : mpaa|PG-13|300|Rated PG-13 For elements of mature subject matter.
    Video #1
    ID : 1
    Format : AVC
    Format/Info : Advanced Video Codec
    Format profile : Baseline@L3
    Format settings, CABAC : No
    Format settings, ReFrames : 2 frames
    Codec ID : avc1
    Codec ID/Info : Advanced Video Coding
    Duration : 1h 57mn
    Bit rate : 1 800 Kbps
    Width : 640 pixels
    Height : 480 pixels
    Display aspect ratio : 16:9
    Frame rate mode : Variable
    Frame rate : 23.976 fps
    Minimum frame rate : 23.974 fps
    Maximum frame rate : 23.981 fps
    Color space : YUV
    Chroma subsampling : 4:2:0
    Bit depth : 8 bits
    Scan type : Progressive
    Bits/(Pixel*Frame) : 0.244
    Stream size : 1.48 GiB (75%)
    Title : Main Program
    Writing library : x264 core 130 r2273 b3065e6
    Encoding settings : cabac=0 / ref=2 / deblock=1:0:0 / analyse=0x1:0x111 / me=umh / subme=6 / psy=1 / psy_rd=1.00:0.00 / mixed_ref=1 / me_range=16 / chroma_me=1 / trellis=0 / 8x8dct=0 / cqm=0 / deadzone=21,11 / fast_pskip=1 / chroma_qp_offset=-2 / threads=18 / lookahead_threads=3 / sliced_threads=0 / nr=0 / decimate=1 / interlaced=0 / bluray_compat=0 / constrained_intra=0 / bframes=0 / weightp=0 / keyint=240 / keyint_min=24 / scenecut=40 / intra_refresh=0 / rc_lookahead=40 / rc=2pass / mbtree=1 / bitrate=1800 / ratetol=1.0 / qcomp=0.60 / qpmin=0 / qpmax=69 / qpstep=4 / cplxblur=20.0 / qblur=0.5 / vbv_maxrate=5000 / vbv_bufsize=5000 / nal_hrd=none / ip_ratio=1.40 / aq=1:1.00
    Language : English
    Encoded date : UTC 2015-08-03 09:48:18
    Tagged date : UTC 2015-08-03 09:48:22
    Color range : Limited
    Color primaries : BT.709
    Transfer characteristics : BT.709
    Matrix coefficients : BT.709
    Video #2
    ID : 10
    Format : JPEG
    Codec ID : jpeg
    Duration : 1h 57mn
    Bit rate mode : Variable
    Bit rate : 856 bps
    Width : 640 pixels
    Height : 360 pixels
    Display aspect ratio : 16:9
    Frame rate mode : Variable
    Frame rate : 0.002 fps
    Minimum frame rate : 0.002 fps
    Maximum frame rate : 0.005 fps
    Color space : YUV
    Chroma subsampling : 4:2:0
    Bit depth : 8 bits
    Compression mode : Lossy
    Bits/(Pixel*Frame) : 1.858
    Stream size : 836 KiB (0%)
    Title : Chapter Images
    Language : English
    Encoded date : UTC 2015-08-03 12:15:15
    Tagged date : UTC 2015-08-03 12:15:16
    Audio #1
    ID : 2
    Format : AAC
    Format/Info : Advanced Audio Codec
    Format profile : LC
    Codec ID : 40
    Duration : 1h 57mn
    Bit rate mode : Variable
    Bit rate : 132 Kbps
    Maximum bit rate : 202 Kbps
    Channel(s) : 2 channels
    Channel positions : Front: L R
    Sampling rate : 48.0 KHz
    Compression mode : Lossy
    Stream size : 111 MiB (5%)
    Title : Russian DVO A.Gradov & podruga Stereo
    Language : Russian
    Encoded date : UTC 2015-08-03 09:48:18
    Tagged date : UTC 2015-08-03 09:48:26
    Audio #2
    ID : 3
    Format : AAC
    Format/Info : Advanced Audio Codec
    Format profile : LC
    Codec ID : 40
    Duration : 1h 58mn
    Bit rate mode : Variable
    Bit rate : 117 Kbps
    Maximum bit rate : 192 Kbps
    Channel(s) : 2 channels
    Channel positions : Front: L R
    Sampling rate : 48.0 KHz
    Compression mode : Lossy
    Stream size : 98.6 MiB (5%)
    Title : Russian DVO Stereo
    Language : Russian
    Encoded date : UTC 2015-08-03 10:22:40
    Tagged date : UTC 2015-08-03 10:22:46
    Audio #3
    ID : 4
    Format : AAC
    Format/Info : Advanced Audio Codec
    Format profile : LC
    Codec ID : 40
    Duration : 1h 57mn
    Bit rate mode : Variable
    Bit rate : 107 Kbps
    Maximum bit rate : 160 Kbps
    Channel(s) : 2 channels
    Channel positions : Front: L R
    Sampling rate : 48.0 KHz
    Compression mode : Lossy
    Stream size : 90.5 MiB (4%)
    Title : Ukrainian MVO 1+1 Stereo
    Language : Ukrainian
    Encoded date : UTC 2015-08-03 10:22:40
    Tagged date : UTC 2015-08-03 10:22:46
    Audio #4
    ID : 5
    Format : AAC
    Format/Info : Advanced Audio Codec
    Format profile : LC
    Codec ID : 40
    Duration : 1h 57mn
    Bit rate mode : Variable
    Bit rate : 108 Kbps
    Maximum bit rate : 160 Kbps
    Channel(s) : 2 channels
    Channel positions : Front: L R
    Sampling rate : 48.0 KHz
    Compression mode : Lossy
    Stream size : 90.9 MiB (4%)
    Title : Ukrainian MVO K1 Stereo
    Language : Ukrainian
    Encoded date : UTC 2015-08-03 10:22:40
    Tagged date : UTC 2015-08-03 10:22:46
    Audio #5
    ID : 6
    Format : AAC
    Format/Info : Advanced Audio Codec
    Format profile : LC
    Codec ID : 40
    Duration : 1h 57mn
    Bit rate mode : Variable
    Bit rate : 128 Kbps
    Maximum bit rate : 215 Kbps
    Channel(s) : 2 channels
    Channel positions : Front: L R
    Sampling rate : 48.0 KHz
    Compression mode : Lossy
    Stream size : 108 MiB (5%)
    Title : English Stereo
    Language : English
    Encoded date : UTC 2015-08-03 11:28:21
    Tagged date : UTC 2015-08-03 11:28:26
    Text #1
    ID : 7
    Format : Timed Text
    Muxing mode : sbtl
    Codec ID : tx3g
    Duration : 1h 54mn
    Bit rate mode : Variable
    Bit rate : 82 bps
    Stream size : 68.9 KiB (0%)
    Title : Russian Subtitle
    Language : Russian
    Encoded date : UTC 2015-08-03 12:12:09
    Tagged date : UTC 2015-08-03 12:12:09
    Text #2
    ID : 8
    Format : Timed Text
    Muxing mode : sbtl
    Codec ID : tx3g
    Duration : 1h 54mn
    Bit rate mode : Variable
    Bit rate : 61 bps
    Stream size : 51.1 KiB (0%)
    Title : English Subtitle
    Language : English
    Encoded date : UTC 2015-08-03 12:12:09
    Tagged date : UTC 2015-08-03 12:12:09
    Menu #1
    00:00:00.000 : 1
    00:08:25.046 : 2
    00:15:56.622 : 3
    00:24:02.107 : 4
    00:30:40.380 : 5
    00:37:58.192 : 6
    00:44:11.899 : 7
    00:52:58.425 : 8
    00:58:43.353 : 9
    01:06:41.539 : 10
    01:16:16.989 : 11
    01:21:34.848 : 12
    01:31:46.375 : 13
    01:38:47.254 : 14
    01:44:51.159 : 15
    01:54:53.386 : 16
    Menu #2
    ID : 9
    Codec ID : text
    Duration : 1h 57mn
    Title : Chapter Titles
    Language : English
    Encoded date : UTC 2015-08-03 12:15:12
    Tagged date : UTC 2015-08-03 12:15:12
    00:00:00.000 : 1
    00:08:25.046 : 2
    00:15:56.622 : 3
    00:24:02.107 : 4
    00:30:40.380 : 5
    00:37:58.192 : 6
    00:44:11.899 : 7
    00:52:58.425 : 8
    00:58:43.353 : 9
    01:06:41.539 : 10
    01:16:16.989 : 11
    01:21:34.848 : 12
    01:31:46.375 : 13
    01:38:47.254 : 14
    01:44:51.159 : 15
    01:54:53.386 : 16
    Bit rate mode : VBR

    MediaInfo 720p Release

    General
    Complete name : What's Eating Gilbert Grape (HD).m4v
    Format : MPEG-4
    Codec ID : M4V
    File size : 7.31 GiB
    Duration : 1h 58mn
    Overall bit rate mode : Variable
    Overall bit rate : 8 862 Kbps
    Movie name : What's Eating Gilbert Grape
    Performer : Lasse Hallström
    Director : Лассе Халльстрём
    Actor : Джонни Депп / Леонардо ДиКаприо / Джульетт Льюис / Мэри Стинберген / Дарлен Кэйтс / Лора Хэррингтон / Мэри Кейт Шеллхардт / Кевин Тай / Джон Си Райли / Криспин Гловер
    Screenplay by : Питер Хеджес
    Producer : Дэвид Маталон / Бертил Олссон / Мейр Тепер
    Production studio : Paramount
    Genre : Drama
    ContentType : Short Film
    Description : Гилберт Грейп живет в штате Айова, в крошечном городке с населением в тысячу жителей. У него две сестры, слабоумный брат и толстуха-мать. Гилберт тянет лямку в магазине и крутит роман с замужней дамой. Но все меняется, когда в городок приезжает красивая молодая женщина по имени Беки.
    Recorded date : UTC 1993-12-17 08:00:00
    Encoded date : UTC 2015-08-03 12:23:12
    Tagged date : UTC 2015-08-03 12:30:41
    Copyright : © TM & Copyright 2007 by Paramount Pictures. All Rights Reserved.
    Cover : Yes
    Rating : None
    Title/Sort : What's Eating Gilbert Grape
    LongDescription : Гилберт Грейп живет в штате Айова, в крошечном городке с населением в тысячу жителей. У него две сестры, слабоумный брат и толстуха-мать. Гилберт тянет лямку в магазине и крутит роман с замужней дамой. Но все меняется, когда в городок приезжает красивая молодая женщина по имени Беки.
    HDVideo : Yes
    AppleStoreCatalogID : 270458682
    Vendor : Apple:vendor_id:1993-4466
    ContentRating : mpaa|PG-13|300|Rated PG-13 For elements of mature subject matter.
    Video #1
    ID : 1
    Format : AVC
    Format/Info : Advanced Video Codec
    Format profile : High@L3.1
    Format settings, CABAC : No
    Format settings, ReFrames : 3 frames
    Codec ID : avc1
    Codec ID/Info : Advanced Video Coding
    Duration : 1h 57mn
    Source duration : 1h 57mn
    Bit rate : 7 000 Kbps
    Width : 1 280 pixels
    Height : 720 pixels
    Display aspect ratio : 16:9
    Frame rate mode : Variable
    Frame rate : 23.976 fps
    Minimum frame rate : 23.974 fps
    Maximum frame rate : 23.981 fps
    Color space : YUV
    Chroma subsampling : 4:2:0
    Bit depth : 8 bits
    Scan type : Progressive
    Bits/(Pixel*Frame) : 0.317
    Stream size : 5.75 GiB (79%)
    Source stream size : 5.75 GiB (79%)
    Title : Main Program
    Writing library : x264 core 130 r2273 b3065e6
    Encoding settings : cabac=0 / ref=3 / deblock=1:-3:-2 / analyse=0x3:0x113 / me=umh / subme=9 / psy=1 / psy_rd=0.80:0.25 / mixed_ref=1 / me_range=32 / chroma_me=1 / trellis=0 / 8x8dct=1 / cqm=0 / deadzone=6,6 / fast_pskip=0 / chroma_qp_offset=-2 / threads=18 / lookahead_threads=1 / sliced_threads=0 / nr=0 / decimate=0 / interlaced=0 / bluray_compat=0 / constrained_intra=0 / bframes=3 / b_pyramid=0 / b_adapt=2 / b_bias=0 / direct=1 / weightb=0 / open_gop=0 / weightp=0 / keyint=240 / keyint_min=24 / scenecut=40 / intra_refresh=0 / rc_lookahead=40 / rc=2pass / mbtree=1 / bitrate=7000 / ratetol=1.0 / qcomp=0.80 / qpmin=0 / qpmax=69 / qpstep=4 / cplxblur=20.0 / qblur=0.5 / vbv_maxrate=9500 / vbv_bufsize=9500 / nal_hrd=none / ip_ratio=1.10 / aq=1:0.50
    Language : English
    Encoded date : UTC 2015-08-03 12:23:12
    Tagged date : UTC 2015-08-03 12:25:03
    Color range : Limited
    Color primaries : BT.709
    Transfer characteristics : BT.709
    Matrix coefficients : BT.709
    Video #2
    ID : 12
    Format : JPEG
    Codec ID : jpeg
    Duration : 1h 57mn
    Bit rate mode : Variable
    Bit rate : 963 bps
    Width : 640 pixels
    Height : 360 pixels
    Display aspect ratio : 16:9
    Frame rate mode : Variable
    Frame rate : 0.002 fps
    Minimum frame rate : 0.002 fps
    Maximum frame rate : 0.005 fps
    Color space : YUV
    Chroma subsampling : 4:2:0
    Bit depth : 8 bits
    Compression mode : Lossy
    Bits/(Pixel*Frame) : 2.090
    Stream size : 941 KiB (0%)
    Title : Chapter Images
    Language : English
    Encoded date : UTC 2015-08-03 12:25:08
    Tagged date : UTC 2015-08-03 12:25:08
    Audio #1
    ID : 2
    Format : AAC
    Format/Info : Advanced Audio Codec
    Format profile : LC
    Codec ID : 40
    Duration : 1h 57mn
    Bit rate mode : Variable
    Bit rate : 197 Kbps
    Maximum bit rate : 302 Kbps
    Channel(s) : 2 channels
    Channel positions : Front: L R
    Sampling rate : 48.0 KHz
    Compression mode : Lossy
    Stream size : 166 MiB (2%)
    Title : Russian DVO A.Gradov & podruga Stereo
    Language : Russian
    Encoded date : UTC 2015-08-03 12:23:12
    Tagged date : UTC 2015-08-03 12:25:03
    Audio #2
    ID : 3
    Format : AAC
    Format/Info : Advanced Audio Codec
    Format profile : LC
    Codec ID : 40
    Duration : 1h 58mn
    Bit rate mode : Variable
    Bit rate : 163 Kbps
    Maximum bit rate : 262 Kbps
    Channel(s) : 2 channels
    Channel positions : Front: L R
    Sampling rate : 48.0 KHz
    Compression mode : Lossy
    Stream size : 138 MiB (2%)
    Title : Russian DVO Stereo
    Language : Russian
    Encoded date : UTC 2015-08-03 12:23:12
    Tagged date : UTC 2015-08-03 12:25:03
    Audio #3
    ID : 4
    Format : AAC
    Format/Info : Advanced Audio Codec
    Format profile : LC
    Codec ID : 40
    Duration : 1h 57mn
    Bit rate mode : Variable
    Bit rate : 148 Kbps
    Maximum bit rate : 214 Kbps
    Channel(s) : 2 channels
    Channel positions : Front: L R
    Sampling rate : 48.0 KHz
    Compression mode : Lossy
    Stream size : 124 MiB (2%)
    Title : Ukrainian MVO 1+1 Stereo
    Language : Ukrainian
    Encoded date : UTC 2015-08-03 12:23:12
    Tagged date : UTC 2015-08-03 12:25:03
    Audio #4
    ID : 5
    Format : AAC
    Format/Info : Advanced Audio Codec
    Format profile : LC
    Codec ID : 40
    Duration : 1h 57mn
    Bit rate mode : Variable
    Bit rate : 144 Kbps
    Maximum bit rate : 181 Kbps
    Channel(s) : 2 channels
    Channel positions : Front: L R
    Sampling rate : 48.0 KHz
    Compression mode : Lossy
    Stream size : 124 MiB (2%)
    Title : Ukrainian MVO K1 Stereo
    Language : Ukrainian
    Encoded date : UTC 2015-08-03 12:23:12
    Tagged date : UTC 2015-08-03 12:25:03
    Audio #5
    ID : 6
    Format : AAC
    Format/Info : Advanced Audio Codec
    Format profile : LC
    Codec ID : 40
    Duration : 1h 57mn
    Bit rate mode : Variable
    Bit rate : 196 Kbps
    Maximum bit rate : 316 Kbps
    Channel(s) : 2 channels
    Channel positions : Front: L R
    Sampling rate : 48.0 KHz
    Compression mode : Lossy
    Stream size : 166 MiB (2%)
    Title : English Stereo
    Language : English
    Encoded date : UTC 2015-08-03 12:23:12
    Tagged date : UTC 2015-08-03 12:25:03
    Audio #6
    ID : 7
    Format : AC-3
    Format/Info : Audio Coding 3
    Mode extension : CM (complete main)
    Format settings, Endianness : Big
    Codec ID : ac-3
    Duration : 1h 57mn
    Bit rate mode : Constant
    Bit rate : 384 Kbps
    Channel(s) : 6 channels
    Channel positions : Front: L C R, Side: L R, LFE
    Sampling rate : 48.0 KHz
    Bit depth : 16 bits
    Compression mode : Lossy
    Stream size : 324 MiB (4%)
    Title : Russian DVO A.Gradov & podruga DD 5.1
    Language : Russian
    Encoded date : UTC 2015-08-03 12:23:12
    Tagged date : UTC 2015-08-03 12:25:03
    Audio #7
    ID : 8
    Format : AC-3
    Format/Info : Audio Coding 3
    Mode extension : CM (complete main)
    Format settings, Endianness : Big
    Codec ID : ac-3
    Duration : 1h 57mn
    Bit rate mode : Constant
    Bit rate : 640 Kbps
    Channel(s) : 6 channels
    Channel positions : Front: L C R, Side: L R, LFE
    Sampling rate : 48.0 KHz
    Bit depth : 16 bits
    Compression mode : Lossy
    Stream size : 540 MiB (7%)
    Title : English DD 5.1
    Language : English
    Encoded date : UTC 2015-08-03 12:23:12
    Tagged date : UTC 2015-08-03 12:25:03
    Text #1
    ID : 9
    Format : Timed Text
    Muxing mode : sbtl
    Codec ID : tx3g
    Duration : 1h 54mn
    Bit rate mode : Variable
    Bit rate : 82 bps
    Stream size : 68.8 KiB (0%)
    Title : Russian Subtitle
    Language : Russian
    Encoded date : UTC 2015-08-03 12:23:12
    Tagged date : UTC 2015-08-03 12:25:00
    Text #2
    ID : 10
    Format : Timed Text
    Muxing mode : sbtl
    Codec ID : tx3g
    Duration : 1h 54mn
    Bit rate mode : Variable
    Bit rate : 61 bps
    Stream size : 51.1 KiB (0%)
    Title : English Subtitle
    Language : English
    Encoded date : UTC 2015-08-03 12:23:12
    Tagged date : UTC 2015-08-03 12:25:00
    Menu #1
    00:00:00.000 : 1
    00:08:25.046 : 2
    00:15:56.622 : 3
    00:24:02.107 : 4
    00:30:40.380 : 5
    00:37:58.192 : 6
    00:44:11.899 : 7
    00:52:58.425 : 8
    00:58:43.353 : 9
    01:06:41.539 : 10
    01:16:16.989 : 11
    01:21:34.848 : 12
    01:31:46.375 : 13
    01:38:47.254 : 14
    01:44:51.159 : 15
    01:54:53.386 : 16
    Menu #2
    ID : 11
    Codec ID : text
    Duration : 1h 57mn
    Title : Chapter Titles
    Language : English
    Encoded date : UTC 2015-08-03 12:25:03
    Tagged date : UTC 2015-08-03 12:25:03
    00:00:00.000 : 1
    00:08:25.046 : 2
    00:15:56.622 : 3
    00:24:02.107 : 4
    00:30:40.380 : 5
    00:37:58.192 : 6
    00:44:11.899 : 7
    00:52:58.425 : 8
    00:58:43.353 : 9
    01:06:41.539 : 10
    01:16:16.989 : 11
    01:21:34.848 : 12
    01:31:46.375 : 13
    01:38:47.254 : 14
    01:44:51.159 : 15
    01:54:53.386 : 16
    Bit rate mode : VBR

    x264 лог 480p Release

    HandBrakeCLI -i "/What's_Eating_Gilbert_Grape_2003_Remux_1080p_HDClub/BDMV/STREAM/00000.m2ts" -t 1 -o What.s.Eating.Gilbert.Grape.480p.rus.m4v -f mp4 -I -O -w 640 -l 480 --crop 0:0:2:0 --custom-anamorphic --modulus 16 --pixel-aspect 852:640 -e x264 -b 1800 -2 -a none -x cabac=0:ref=2:me=umh:bframes=0:weightp=0:subq=6:8x8dct=0:trellis=0:vbv-maxrate=5000:vbv-bufsize=5000 --verbose=1
    x264 [info]: frame I:1917  Avg QP:20.83  size: 44460  PSNR Mean Y:42.50 U:45.88 V:47.49 Avg:43.47 Global:43.03
    x264 [info]: frame P:167762 Avg QP:23.11  size:  8974  PSNR Mean Y:40.02 U:43.74 V:44.92 Avg:41.00 Global:40.59
    x264 [info]: mb I  I16..4: 13.3%  0.0% 86.7%
    x264 [info]: mb P  I16..4:  0.4%  0.0%  1.8%  P16..4: 53.0% 21.1%  9.3%  0.0%  0.0%    skip:14.3%
    x264 [info]: coded y,uvDC,uvAC intra: 86.4% 85.5% 62.0% inter: 31.7% 27.9% 4.5%
    x264 [info]: i16 v,h,dc,p: 39% 13%  9% 39%
    x264 [info]: i4 v,h,dc,ddl,ddr,vr,hd,vl,hu: 24% 12% 17%  7%  9% 11%  6%  9%  5%
    x264 [info]: i8c dc,h,v,p: 49% 14% 27% 10%
    x264 [info]: ref P L0: 70.0% 30.0%
    x264 [info]: SSIM Mean Y:0.9620542 (14.208db)
    x264 [info]: PSNR Mean Y:40.044 U:43.764 V:44.951 Avg:41.024 Global:40.609 kb/s:1798.13

    x264 лог 720p Release

    HandBrakeCLI -i "/What's_Eating_Gilbert_Grape_2003_Remux_1080p_HDClub/BDMV/STREAM/00000.m2ts" -t 1 -o What's.Eating.Gilbert.Grape.720p.eng.m4v -f mp4 -4 -O -w 1280 -l 720 --crop 0:0:2:0 --modulus 16 -e x264 -b 7000 -2 -a none -x cabac=0:ref=3:me=umh:b-pyramid=none:b-adapt=2:weightb=0:trellis=0:weightp=0:vbv-maxrate=9500:vbv-bufsize=9500:subq=9:merange=32:deblock=-3,-2:qcomp=0.80:qpmin=0:qpmax=69:fast_pskip=0:aq-strength=0.5:no-dct-decimate=1:psy-rd=0.80,0.25:ipratio=1.1:pbratio=1.1:deadzone-inter=6:deadzone-intra=6 --verbose=1
    x264 [info]: frame I:1420  Avg QP:22.81  size:108343  PSNR Mean Y:42.37 U:45.30 V:47.15 Avg:43.28 Global:42.95
    x264 [info]: frame P:52738 Avg QP:23.83  size: 62896  PSNR Mean Y:41.50 U:44.71 V:46.54 Avg:42.45 Global:41.99
    x264 [info]: frame B:115521 Avg QP:25.31  size: 23400  PSNR Mean Y:40.13 U:44.15 V:46.30 Avg:41.21 Global:40.71
    x264 [info]: consecutive B-frames:  1.6%  9.3% 41.1% 48.1%
    x264 [info]: mb I  I16..4:  4.7% 69.4% 26.0%
    x264 [info]: mb P  I16..4:  0.8%  9.0%  2.4%  P16..4: 48.1% 27.6%  9.7%  0.0%  0.0%    skip: 2.4%
    x264 [info]: mb B  I16..4:  0.1%  1.0%  0.3%  B16..8: 36.9% 12.2%  1.9%  direct: 9.1%  skip:38.5%  L0:34.8% L1:39.4% BI:25.8%
    x264 [info]: 8x8 transform intra:72.9% inter:42.5%
    x264 [info]: coded y,uvDC,uvAC intra: 94.4% 79.1% 45.5% inter: 47.8% 24.0% 7.5%
    x264 [info]: i16 v,h,dc,p: 36% 14%  9% 40%
    x264 [info]: i8 v,h,dc,ddl,ddr,vr,hd,vl,hu:  9%  7%  4% 12% 16% 16% 13% 12% 10%
    x264 [info]: i4 v,h,dc,ddl,ddr,vr,hd,vl,hu: 12%  8%  2% 11% 17% 18% 13% 11%  8%
    x264 [info]: i8c dc,h,v,p: 50% 17% 21% 12%
    x264 [info]: ref P L0: 65.4% 22.2% 12.4%
    x264 [info]: ref B L0: 80.9% 19.1%
    x264 [info]: SSIM Mean Y:0.9516440 (13.155db)
    x264 [info]: PSNR Mean Y:40.572 U:44.334 V:46.384 Avg:41.610 Global:41.086 kb/s:6979.20

    Скриншоты 480p Release

    Скриншоты 720p Release

    Цитата:
    Цитата:

    • Все звуковые дорожки и субтитры взяты из раздачи. Рассинхрон русских субтитров устранен.
    -

    Релиз подготовлен для просмотра на Apple TV, iPad, iPhone, iPod Touch.
    Для просмотра данного релиза на компьютере с ОС Windows рекомендуется использовать VLC media player
    Скачать .torrent

    Скачать торрент-файл бесплатно и на максимальной скорости!

    Как скачивать? · Что такое торрент? · Рейтинг и ограничения

    !ВНИМАНИЕ!
    Сайт не распространяет и не хранит электронные версии произведений, а занимается лишь лишь предоставлением доступа к создаваемому пользователями каталогу ссылок на торрент-файлы, которые содержат только списки хеш-сумм, убедительная просьба с жалобами обращаться напрямую к пользователю. Файлы для обмена на трекере предоставлены пользователями сайта, и администрация не несёт ответственности за их содержание. Просьба не заливать файлы, защищенные авторскими правами, а также файлы нелегального содержания!


  • _________________
    [Профиль] [ЛС]
    Показать сообщения:    
    Ответить на тему

    Текущее время: Сегодня, в 11:42

    Часовой пояс: GMT + 2



    Вы не можете начинать темы
    Вы не можете отвечать на сообщения
    Вы не можете редактировать свои сообщения
    Вы не можете удалять свои сообщения
    Вы не можете голосовать в опросах
    Вы не можете прикреплять файлы к сообщениям
    Вы не можете скачивать файлы