BitTorrentTracker PerecTracker.org
BitTorrentTracker PerecTracker.org
    
Регистрация  ·  Вход
 
 · 
Забыли пароль?

  • (Jewish, Sephardic) Isaac Salinas - The Sephardic Heritage - 1993, FLAC (tracks+.cue) lossless

    Ответить на тему
     
    Автор Сообщение

    Columb

    Создавать темы 21-Май-2013 12:00

           

    [Цитировать]

    Isaac Salinas / The Sephardic Heritage
    Жанр: Jewish, Sephardic
    Страна-производитель диска: Spain
    Год издания диска: 1993
    Издатель (лейбл): Montilla
    Номер по каталогу: CDFM-3008
    Аудиокодек: FLAC
    Тип рипа: tracks+.cue
    Битрейт аудио: lossless
    Продолжительность: 37:07
    Источник: CD
    сайт-источник/ник/другое: Max Monteiro
    Наличие сканов в содержимом раздачи: нет
    Треклист:
    01. Cuando el rey Nimrod
    02. Los Bilbilicos
    03. La vida dó por el raki
    04. Adio querida
    05. Arvolicos d’almendra
    06. Yo m’enamori d’un aire
    07. En el Café del Amanecer
    08. Durme mi angelico
    09. Avre este abajour
    10. Povereta muchachica
    11. Arvoles lloran
    12. Barona te vo a hacerte
    Isaac Salinas – Tenor
    Arreglos Musicales y Dirección : Laszlo Rooth.

    Лог создания рипа

    Exact Audio Copy V1.0 beta 3 from 29. August 2011
    EAC extraction logfile from 13. May 2013, 17:52
    Isaac Salinas / The Sephardic Heritage
    Used drive : SlimtypeeNAU508 5 Adapter: 1 ID: 0
    Read mode : Secure
    Utilize accurate stream : Yes
    Defeat audio cache : Yes
    Make use of C2 pointers : No
    Read offset correction : 6
    Overread into Lead-In and Lead-Out : No
    Fill up missing offset samples with silence : Yes
    Delete leading and trailing silent blocks : No
    Null samples used in CRC calculations : Yes
    Used interface : Native Win32 interface for Win NT & 2000
    Gap handling : Appended to previous track
    Used output format : User Defined Encoder
    Selected bitrate : 768 kBit/s
    Quality : High
    Add ID3 tag : No
    Command line compressor : C:\Program Files (x86)\Exact Audio Copy\Flac\flac.exe
    Additional command line options : -8 -V -T "ARTIST=%artist%" -T "TITLE=%title%" -T "ALBUM=%albumtitle%" -T "DATE=%year%" -T "TRACKNUMBER=%tracknr%" -T "GENRE=%genre%" -T "PERFORMER=%albuminterpret%" -T "COMPOSER=%composer%" %haslyrics%--tag-from-file=LYRICS="%lyricsfile%"%haslyrics% -T "ALBUMARTIST=%albumartist%" -T "DISCNUMBER=%cdnumber%" -T "TOTALDISCS=%totalcds%" -T "TOTALTRACKS=%numtracks%" -T "COMMENT=%comment%" %source% -o %dest%
    TOC of the extracted CD
    Track | Start | Length | Start sector | End sector
    ---------------------------------------------------------
    1 | 0:00.32 | 1:56.65 | 32 | 8796
    2 | 1:57.22 | 2:59.18 | 8797 | 22239
    3 | 4:56.40 | 2:47.35 | 22240 | 34799
    4 | 7:44.00 | 4:33.57 | 34800 | 55331
    5 | 12:17.57 | 2:55.53 | 55332 | 68509
    6 | 15:13.35 | 2:35.52 | 68510 | 80186
    7 | 17:49.12 | 2:57.68 | 80187 | 93529
    8 | 20:47.05 | 3:13.32 | 93530 | 108036
    9 | 24:00.37 | 2:47.73 | 108037 | 120634
    10 | 26:48.35 | 3:21.65 | 120635 | 135774
    11 | 30:10.25 | 2:47.25 | 135775 | 148324
    12 | 32:57.50 | 4:09.27 | 148325 | 167026
    Track 1
    Filename C:\EAC rips\01 - Cuando el rey Nimrod.wav
    Pre-gap length 0:00:02.32
    Peak level 92.9 %
    Extraction speed 0.7 X
    Track quality 99.9 %
    Test CRC 2C6C0BA4
    Copy CRC 2C6C0BA4
    Cannot be verified as accurate (confidence 1) [A7FF9F1A], AccurateRip returned [8088EE8A] (AR v2)
    Copy OK
    Track 2
    Filename C:\EAC rips\02 - Los Bilbilicos.wav
    Pre-gap length 0:00:02.70
    Peak level 77.5 %
    Extraction speed 1.0 X
    Track quality 100.0 %
    Test CRC 818AED19
    Copy CRC 818AED19
    Track not present in AccurateRip database
    Copy OK
    Track 3
    Filename C:\EAC rips\03 - La vida dó por el raki.wav
    Pre-gap length 0:00:02.53
    Peak level 86.9 %
    Extraction speed 1.1 X
    Track quality 100.0 %
    Test CRC 48D76F9F
    Copy CRC 48D76F9F
    Track not present in AccurateRip database
    Copy OK
    Track 4
    Filename C:\EAC rips\04 - Adio querida.wav
    Pre-gap length 0:00:01.00
    Peak level 80.1 %
    Extraction speed 1.3 X
    Track quality 100.0 %
    Test CRC A598E8B3
    Copy CRC A598E8B3
    Track not present in AccurateRip database
    Copy OK
    Track 5
    Filename C:\EAC rips\05 - Arvolicos d'almendra.wav
    Pre-gap length 0:00:03.35
    Peak level 97.9 %
    Extraction speed 1.3 X
    Track quality 100.0 %
    Test CRC 5654F63E
    Copy CRC 5654F63E
    Track not present in AccurateRip database
    Copy OK
    Track 6
    Filename C:\EAC rips\06 - Yo m'enamori d'un aire.wav
    Peak level 94.6 %
    Extraction speed 1.1 X
    Track quality 99.9 %
    Test CRC 8CCED4C5
    Copy CRC 8CCED4C5
    Track not present in AccurateRip database
    Copy OK
    Track 7
    Filename C:\EAC rips\07 - En el Café del Amanecer.wav
    Pre-gap length 0:00:03.15
    Peak level 90.5 %
    Extraction speed 1.4 X
    Track quality 100.0 %
    Test CRC 995FF89C
    Copy CRC 995FF89C
    Track not present in AccurateRip database
    Copy OK
    Track 8
    Filename C:\EAC rips\08 - Durme mi angelico.wav
    Pre-gap length 0:00:01.28
    Peak level 72.5 %
    Extraction speed 1.5 X
    Track quality 100.0 %
    Test CRC 1701B480
    Copy CRC 1701B480
    Track not present in AccurateRip database
    Copy OK
    Track 9
    Filename C:\EAC rips\09 - Avre este abajour.wav
    Pre-gap length 0:00:01.62
    Peak level 83.4 %
    Extraction speed 1.2 X
    Track quality 99.9 %
    Test CRC 0914574F
    Copy CRC 0914574F
    Track not present in AccurateRip database
    Copy OK
    Track 10
    Filename C:\EAC rips\10 - Povereta muchachica.wav
    Pre-gap length 0:00:01.28
    Peak level 80.2 %
    Extraction speed 1.4 X
    Track quality 99.9 %
    Test CRC C7339DE7
    Copy CRC C7339DE7
    Track not present in AccurateRip database
    Copy OK
    Track 11
    Filename C:\EAC rips\11 - Arvoles lloran.wav
    Pre-gap length 0:00:03.25
    Peak level 74.3 %
    Extraction speed 1.3 X
    Track quality 99.9 %
    Test CRC 5436148A
    Copy CRC 5436148A
    Track not present in AccurateRip database
    Copy OK
    Track 12
    Filename C:\EAC rips\12 - Barona te vo a hacerte.wav
    Pre-gap length 0:00:02.10
    Peak level 74.3 %
    Extraction speed 1.6 X
    Track quality 99.9 %
    Test CRC AFDCCC3C
    Copy CRC AFDCCC3C
    Track not present in AccurateRip database
    Copy OK
    1 track(s) could not be verified as accurate
    11 track(s) not present in the AccurateRip database
    No tracks could be verified as accurate
    You may have a different pressing from the one(s) in the database
    No errors occurred
    End of status report
    ---- CUETools DB Plugin V2.1.4
    [CTDB TOCID: H_s5df8lic0jfQehU0Ms9y15AGA-] disk not present in database
    Submit result: H_s5df8lic0jfQehU0Ms9y15AGA- has been uploaded
    ==== Log checksum 86F70BDAE01C632B8518AE5D3D1BF894A5A0C0AD5EAC37F983758FA31C7AB6C9 ====

    Содержание индексной карты (.CUE)

    REM GENRE Jewish
    REM DATE 1993
    REM DISCID A408B30C
    REM COMMENT "ExactAudioCopy v1.0b3"
    PERFORMER "Isaac Salinas"
    TITLE "The Sephardic Heritage"
    FILE "01 - Cuando el rey Nimrod.wav" WAVE
    TRACK 01 AUDIO
    TITLE "Cuando el rey Nimrod"
    PERFORMER "Isaac Salinas"
    PREGAP 00:00:32
    INDEX 01 00:00:00
    TRACK 02 AUDIO
    TITLE "Los Bilbilicos"
    PERFORMER "Isaac Salinas"
    INDEX 00 01:53:70
    FILE "02 - Los Bilbilicos.wav" WAVE
    INDEX 01 00:00:00
    TRACK 03 AUDIO
    TITLE "La vida dó por el raki"
    PERFORMER "Isaac Salinas"
    INDEX 00 02:56:40
    FILE "03 - La vida dó por el raki.wav" WAVE
    INDEX 01 00:00:00
    TRACK 04 AUDIO
    TITLE "Adio querida"
    PERFORMER "Isaac Salinas"
    INDEX 00 02:46:35
    FILE "04 - Adio querida.wav" WAVE
    INDEX 01 00:00:00
    TRACK 05 AUDIO
    TITLE "Arvolicos d'almendra"
    PERFORMER "Isaac Salinas"
    INDEX 00 04:30:22
    FILE "05 - Arvolicos d'almendra.wav" WAVE
    INDEX 01 00:00:00
    FILE "06 - Yo m'enamori d'un aire.wav" WAVE
    TRACK 06 AUDIO
    TITLE "Yo m'enamori d'un aire"
    PERFORMER "Isaac Salinas"
    INDEX 01 00:00:00
    TRACK 07 AUDIO
    TITLE "En el Café del Amanecer"
    PERFORMER "Isaac Salinas"
    INDEX 00 02:32:37
    FILE "07 - En el Café del Amanecer.wav" WAVE
    INDEX 01 00:00:00
    TRACK 08 AUDIO
    TITLE "Durme mi angelico"
    PERFORMER "Isaac Salinas"
    INDEX 00 02:56:40
    FILE "08 - Durme mi angelico.wav" WAVE
    INDEX 01 00:00:00
    TRACK 09 AUDIO
    TITLE "Avre este abajour"
    PERFORMER "Isaac Salinas"
    INDEX 00 03:11:45
    FILE "09 - Avre este abajour.wav" WAVE
    INDEX 01 00:00:00
    TRACK 10 AUDIO
    TITLE "Povereta muchachica"
    PERFORMER "Isaac Salinas"
    INDEX 00 02:46:45
    FILE "10 - Povereta muchachica.wav" WAVE
    INDEX 01 00:00:00
    TRACK 11 AUDIO
    TITLE "Arvoles lloran"
    PERFORMER "Isaac Salinas"
    INDEX 00 03:18:40
    FILE "11 - Arvoles lloran.wav" WAVE
    INDEX 01 00:00:00
    TRACK 12 AUDIO
    TITLE "Barona te vo a hacerte"
    PERFORMER "Isaac Salinas"
    INDEX 00 02:45:15
    FILE "12 - Barona te vo a hacerte.wav" WAVE
    INDEX 01 00:00:00
    Скачать .torrent

    Скачать торрент-файл бесплатно и на максимальной скорости!

    Как скачивать? · Что такое торрент? · Рейтинг и ограничения

    !ВНИМАНИЕ!
    Сайт не распространяет и не хранит электронные версии произведений, а занимается лишь лишь предоставлением доступа к создаваемому пользователями каталогу ссылок на торрент-файлы, которые содержат только списки хеш-сумм, убедительная просьба с жалобами обращаться напрямую к пользователю. Файлы для обмена на трекере предоставлены пользователями сайта, и администрация не несёт ответственности за их содержание. Просьба не заливать файлы, защищенные авторскими правами, а также файлы нелегального содержания!

    [Профиль] [ЛС]
    Показать сообщения:    
    Ответить на тему

    Текущее время: Сегодня, в 02:23

    Часовой пояс: GMT + 2



    Вы не можете начинать темы
    Вы не можете отвечать на сообщения
    Вы не можете редактировать свои сообщения
    Вы не можете удалять свои сообщения
    Вы не можете голосовать в опросах
    Вы не можете прикреплять файлы к сообщениям
    Вы не можете скачивать файлы