BitTorrentTracker PerecTracker.org
BitTorrentTracker PerecTracker.org
    
Регистрация  ·  Вход
 
 · 
Забыли пароль?

  • Дивергент, глава 2: Инсургент / Insurgent (Роберт Швентке / Robert Schwentke) [2015, США, Фантастика, приключения, триллер, HDRip] Dub (iTunes) + Original Eng

    Ответить на тему
     
    Автор Сообщение

    rechyn

    Создавать темы 04-Авг-2015 08:22

           

    [Цитировать]

    Дивергент, глава 2: Инсургент / Insurgent
    Торрент-файл перезалит 04-Авг-15 02:23.
    Перевод Line заменён на iTunes.

    Страна: США
    Жанр: Фантастика, приключения, триллер
    Год выпуска: 2015
    Продолжительность: 01:59:00
    Перевод: Профессиональный (дублированный) iTunes
    Cубтитры: отсутствуют
    Оригинальная аудиодорожка: английский
    Режиссер: Роберт Швентке / Robert Schwentke
    В ролях: Шейлин Вудли, Тео Джеймс, Кейт Уинслет,
    Джай Кортни, Энсел Элгорт, Майлз Теллер, Зои Кравиц,
    Мекхай Файфер, Наоми Уоттс, Октавия Спенсер, и др.
    Описание: В новой главе антиутопии об обществе, где всё расставлено по полочкам,
    а любая индивидуальность подлежит искоренению, Трис должна найти способ борьбы
    со страшной системой, уничтожающей её близких. Кто из них на очереди? Она узнаёт
    всё больше страшных подробностей, стоящих за кажущимся порядком, и уже не может
    не видеть, что в её мире пора что-то менять. Но главное в этой борьбе — справиться
    с расколом, который враг порождает в её собственной душе...
    Качество видео: HDRip
    Формат видео: AVI
    Vidео: XviD, 720x304 (2.35:1), 23.976 fps, ~1813 kbps avg, 0.345 bit/pixel
    Аudiо #1: Russian (Dolby AC3, 6 ch) CBR 384 kbps, Front: L C R, Side: L R, LFE, 48.0 KHz 16 bits
    Аudiо #2: English (Dolby AC3, 6 ch) CBR 384 kbps, Front: L C R, Side: L R, LFE, 48.0 KHz 16 bits

    MediaInfo

    ОбщееПолное имя R:\Insurgent_2015_HDRip_[perectracker.org].aviФормат : AVIФормат/Информация : Audio Video InterleaveПрофиль формата : OpenDMLРазмер файла : 2,16 ГбайтПродолжительность : 1 ч. 59 м.Общий поток : 2598 Кбит/секПрограмма кодирования : VirtualDubModRus 1.5.10.2 (build 2542/release)Библиотека кодирования : VirtualDubMod build 2542/release
    ВидеоИдентификатор : 0Формат : MPEG-4 VisualПрофиль формата : Advanced Simple@L5Параметр BVOP формата : 2Параметр QPel формата : НетПараметр GMC формата : Без точки переходаПараметр матрицы формата : Default (MPEG)Идентификатор кодека : DX50Идентификатор кодека/Подсказка : DivX 5Продолжительность : 1 ч. 59 м.Битрейт : 1813 Кбит/секШирина : 720 пикселейВысота : 304 пикселяСоотношение сторон : 2,35:1Частота кадров : 23,976 кадра/секЦветовое пространство : YUVСубдискретизация насыщенности : 4:2:0Битовая глубина : 8 битТип развёртки : ПрогрессивнаяМетод сжатия : С потерямиБит/(Пиксели*Кадры) : 0.345Размер потока : 1,51 Гбайт (70%)Библиотека кодирования : XviD 1.2.1 (UTC 2008-12-04)
    Аудио #1Идентификатор : 1Формат : AC-3Формат/Информация : Audio Coding 3Расширение режима : CM (complete main)Параметр Endianness формата : BigИдентификатор кодека : 2000Продолжительность : 1 ч. 58 м.Вид битрейта : ПостоянныйБитрейт : 384 Кбит/секКаналы : 6 каналовРасположение каналов : Front: L C R, Side: L R, LFEЧастота : 48,0 КГцБитовая глубина : 16 битМетод сжатия : С потерямиЗадержка видео : 22 мс.Размер потока : 327 Мбайт (15%)Выравнивание : Разделение по промежуткамПродолжительность промежутка : 42 мс. (1,00 видеокадр)Время предзагрузки промежутка : 500 мс.
    Аудио #2Идентификатор : 2Формат : AC-3Формат/Информация : Audio Coding 3Расширение режима : CM (complete main)Параметр Endianness формата : BigИдентификатор кодека : 2000Продолжительность : 1 ч. 59 м.Вид битрейта : ПостоянныйБитрейт : 384 Кбит/секКаналы : 6 каналовРасположение каналов : Front: L C R, Side: L R, LFEЧастота : 48,0 КГцБитовая глубина : 16 битМетод сжатия : С потерямиЗадержка видео : 22 мс.Размер потока : 327 Мбайт (15%)Выравнивание : Разделение по промежуткамПродолжительность промежутка : 42 мс. (1,00 видеокадр)Время предзагрузки промежутка : 500 мс.

    Скриншот c названием фильма

    Скриншоты

    Раздача: По возможности!!!
    Скачать .torrent

    Скачать торрент-файл бесплатно и на максимальной скорости!

    Как скачивать? · Что такое торрент? · Рейтинг и ограничения

    !ВНИМАНИЕ!
    Сайт не распространяет и не хранит электронные версии произведений, а занимается лишь лишь предоставлением доступа к создаваемому пользователями каталогу ссылок на торрент-файлы, которые содержат только списки хеш-сумм, убедительная просьба с жалобами обращаться напрямую к пользователю. Файлы для обмена на трекере предоставлены пользователями сайта, и администрация не несёт ответственности за их содержание. Просьба не заливать файлы, защищенные авторскими правами, а также файлы нелегального содержания!


    _________________
    [Профиль] [ЛС]
    Показать сообщения:    
    Ответить на тему

    Текущее время: Сегодня, в 23:49

    Часовой пояс: GMT + 2



    Вы не можете начинать темы
    Вы не можете отвечать на сообщения
    Вы не можете редактировать свои сообщения
    Вы не можете удалять свои сообщения
    Вы не можете голосовать в опросах
    Вы не можете прикреплять файлы к сообщениям
    Вы не можете скачивать файлы