BitTorrentTracker PerecTracker.org
BitTorrentTracker PerecTracker.org
    
Регистрация  ·  Вход
 
 · 
Забыли пароль?

  • [ATV3] Что творят мужчины! 2 (Сарик Андреасян) [2015, Россия, комедия, WEB-DL HD (1080p)] Original

    Ответить на тему
     
    Автор Сообщение

    rechyn

    Создавать темы 04-Авг-2015 04:10

           

    [Цитировать]

    Что творят мужчины! 2
    "Они вернутся в большой секс!"
    2.963 / 10
    -Год выпуска: 2015
    Страна: Россия
    Жанр: комедия
    Продолжительность: 90 мин.
    Перевод: Не требуется
    Оригинальная аудиодорожка: Есть
    Cубтитры: Нет
    Режиссёр: Сарик Андреасян
    Сценарий: Таир Мамедов, Леонид Марголин, Сарик Андреасян
    Продюсер: Сарик Андреасян, Гевонд Андреасян, Владимир Поляков
    Оператор: Антон Зенкович
    Композитор: Сергей Зеленцов, Арташес Андреасян
    Художник: Кристина Брентон, Оксана Шевченко, Элиз Хэннафорд
    Монтаж: Георгий Исаакян
    В ролях: Таир Мамедов, Роман Юнусов, Дмитрий Кожома, Никита Джигурда, Настя Задорожная, Петр Винс, Вадим Цаллати, Наталья Рудова, Елена Борщева, Елена Беркова
    Бюджет: 60 000 000 руб.
    Сборы в России: $3 133 173
    Мировая премьера: 1 января 2015
    Премьера (РФ): 1 января 2015, Каропрокат
    Релиз на DVD: 17 февраля 2015, CD Land
    Описание: России угрожает страшная опасность! Бывший сисадмин Секретного Военного Подразделения, уехавший в Америку, запустил вирус для взлома системы безопасности, что грозит всем нам страшными последствиями. Чтобы остановить программу, нужен пароль - слово, которое произносит бывшая подружка хакера, когда испытывает оргазм. Это всего лишь одно слово, но за последний год у злодея было десяток подружек, и с каждой был секс... и все они в Лос-Анджелесе! Спасти страну призваны главные специалисты по женщинам - Даниэль, Гоша и Виталик.-Качество исходника: WEB-DL 1080p (BlueBird)
    Качество: WEB-DL
    Тип: 1080p
    Контейнер: m4v
    Видео: 1912x812 at 24.000 fps, MPEG-4 AVC, ~4800 kbps avg
    Аудио#1: Russian: 48 kHz, ААС, 2/0 (L,R), ~160.00 kbps avg
    Аудио#2: Russian: 48 kHz, AC3, 3/2 (L,C,R,l,r) + LFE ch, ~384.00 kbps avg-

    iTunes Meta Tags for country ru

    Name: Что творят мужчины! 2
    Artist: Сарик Андреасян
    Genre: Comedy
    Release Date: 2015-01-01T08:00:00Z
    Description: России угрожает страшная опасность! Бывший сисадмин Секретного Военного Подразделения, уехавший в Америку, запустил вирус для взлома системы безопасности, что грозит всем нам страшными последствиями...
    Long Description: России угрожает страшная опасность! Бывший сисадмин Секретного Военного Подразделения, уехавший в Америку, запустил вирус для взлома системы безопасности, что грозит всем нам страшными последствиями. Чтобы остановить программу, нужен пароль - слово, которое произносит бывшая подружка хакера, когда испытывает оргазм. Это всего лишь одно слово, но за последний год у злодея было десяток подружек, и с каждой был секс... и все они в Лос-Анджелесе! Спасти страну призваны главные специалисты по женщинам - Даниэль, Гоша и Виталик.
    Rating: 18+
    Studio: ЕМ Продакшн
    Cast: Таир Мамедов, Роман Юнусов, Дмитрий Кожома, Никита Джигурда, Настя Задорожная, Петр Винс, Вадим Цаллати, Наталья Рудова, Елена Борщева, Елена Беркова
    Director: Сарик Андреасян
    Producers: Сарик Андреасян, Гевонд Андреасян, Владимир Поляков
    Screenwriters: Таир Мамедов, Леонид Марголин, Сарик Андреасян
    contentID: 966430642
    XID: Apple:vendor_id:2015-765083
    Sort Name: Что творят мужчины! 2

    MediaInfo 1080p Release

    General
    Complete name : Что творят мужчины! 2 (1080p HD).m4v
    Format : MPEG-4
    Codec ID : M4V
    File size : 3.18 GiB
    Duration : 1h 25mn
    Overall bit rate mode : Variable
    Overall bit rate : 5 343 Kbps
    Movie name : Что творят мужчины! 2
    Performer : Сарик Андреасян
    Director : Сарик Андреасян
    Actor : Таир Мамедов / Роман Юнусов / Дмитрий Кожома / Никита Джигурда / Настя Задорожная / Петр Винс / Вадим Цаллати / Наталья Рудова / Елена Борщева / Елена Беркова
    Screenplay by : Таир Мамедов / Леонид Марголин / Сарик Андреасян
    Producer : Сарик Андреасян / Гевонд Андреасян / Владимир Поляков
    Production studio : ЕМ Продакшн
    Genre : Comedy
    ContentType : Short Film
    Description : России угрожает страшная опасность! Бывший сисадмин Секретного Военного Подразделения, уехавший в Америку, запустил вирус для взлома системы безопасности, что грозит всем нам страшными последствиями...
    Recorded date : UTC 2015-01-01 08:00:00
    Encoded date : UTC 2015-05-12 09:07:34
    Tagged date : UTC 2015-05-12 09:18:51
    Cover : Yes
    Rating : None
    Title/Sort : Что творят мужчины! 2
    LongDescription : России угрожает страшная опасность! Бывший сисадмин Секретного Военного Подразделения, уехавший в Америку, запустил вирус для взлома системы безопасности, что грозит всем нам страшными последствиями. Чтобы остановить программу, нужен пароль - слово, которое произносит бывшая подружка хакера, когда испытывает оргазм. Это всего лишь одно слово, но за последний год у злодея было десяток подружек, и с каждой был секс... и все они в Лос-Анджелесе! Спасти страну призваны главные специалисты по женщинам - Даниэль, Гоша и Виталик.
    AppleStoreCatalogID : 966430642
    Vendor : Apple:vendor_id:2015-765083
    ContentRating : ru-movie|18+|400|
    Video #1
    ID : 1
    Format : AVC
    Format/Info : Advanced Video Codec
    Format profile : High@L4
    Format settings, CABAC : Yes
    Format settings, ReFrames : 5 frames
    Format settings, GOP : N=1
    Codec ID : avc1
    Codec ID/Info : Advanced Video Coding
    Duration : 1h 25mn
    Bit rate : 4 785 Kbps
    Width : 1 912 pixels
    Height : 812 pixels
    Display aspect ratio : 2.35:1
    Frame rate mode : Variable
    Frame rate : 24.000 fps
    Minimum frame rate : 23.810 fps
    Maximum frame rate : 24.390 fps
    Color space : YUV
    Chroma subsampling : 4:2:0
    Bit depth : 8 bits
    Scan type : Progressive
    Bits/(Pixel*Frame) : 0.128
    Stream size : 2.84 GiB (90%)
    Title : Main Program
    Language : Russian
    Encoded date : UTC 2015-05-12 09:07:34
    Tagged date : UTC 2015-05-12 09:09:50
    Color range : Limited
    Color primaries : BT.709
    Transfer characteristics : BT.709
    Matrix coefficients : BT.709
    Video #2
    ID : 5
    Format : JPEG
    Codec ID : jpeg
    Duration : 1h 25mn
    Bit rate mode : Variable
    Bit rate : 615 bps
    Width : 640 pixels
    Height : 271 pixels
    Display aspect ratio : 2.35:1
    Frame rate mode : Variable
    Frame rate : 0.002 fps
    Minimum frame rate : 0.001 fps
    Maximum frame rate : 0.006 fps
    Color space : YUV
    Chroma subsampling : 4:2:0
    Bit depth : 8 bits
    Compression mode : Lossy
    Bits/(Pixel*Frame) : 1.773
    Stream size : 375 KiB (0%)
    Title : Chapter Images
    Language : Russian
    Encoded date : UTC 2015-05-12 09:09:54
    Tagged date : UTC 2015-05-12 09:09:54
    Audio #1
    ID : 2
    Format : AAC
    Format/Info : Advanced Audio Codec
    Format profile : LC
    Codec ID : 40
    Duration : 1h 25mn
    Bit rate mode : Variable
    Bit rate : 166 Kbps
    Maximum bit rate : 254 Kbps
    Channel(s) : 2 channels
    Channel positions : Front: L R
    Sampling rate : 48.0 KHz
    Compression mode : Lossy
    Stream size : 101 MiB (3%)
    Title : Russian Stereo
    Language : Russian
    Encoded date : UTC 2015-05-12 09:07:34
    Tagged date : UTC 2015-05-12 09:07:48
    Audio #2
    ID : 3
    Format : AC-3
    Format/Info : Audio Coding 3
    Mode extension : CM (complete main)
    Format settings, Endianness : Big
    Codec ID : ac-3
    Duration : 1h 25mn
    Bit rate mode : Constant
    Bit rate : 384 Kbps
    Channel(s) : 6 channels
    Channel positions : Front: L C R, Side: L R, LFE
    Sampling rate : 48.0 KHz
    Bit depth : 16 bits
    Compression mode : Lossy
    Stream size : 234 MiB (7%)
    Title : Russian DD 5.1
    Language : Russian
    Encoded date : UTC 2015-05-12 09:07:34
    Tagged date : UTC 2015-05-12 09:09:50
    Menu #1
    00:00:00.000 : 1
    00:03:45.000 : 2
    00:14:58.000 : 3
    00:24:51.000 : 4
    00:35:38.000 : 5
    00:45:37.000 : 6
    00:55:33.000 : 7
    01:07:02.000 : 8
    01:16:26.000 : 9
    01:22:05.000 : 10
    Menu #2
    ID : 4
    Codec ID : text
    Duration : 1h 25mn
    Title : Chapter Titles
    Language : Russian
    Encoded date : UTC 2015-05-12 09:09:51
    Tagged date : UTC 2015-05-12 09:09:51
    00:00:00.000 : 1
    00:03:45.000 : 2
    00:14:58.000 : 3
    00:24:51.000 : 4
    00:35:38.000 : 5
    00:45:37.000 : 6
    00:55:33.000 : 7
    01:07:02.000 : 8
    01:16:26.000 : 9
    01:22:05.000 : 10
    Bit rate mode : VBR

    Скриншоты 1080p Release

    -

    Релиз подготовлен для просмотра на Apple TV, iPad, iPhone, iPod Touch.
    Для просмотра данного релиза на компьютере с ОС Windows рекомендуется использовать VLC media player
    Скачать .torrent

    Скачать торрент-файл бесплатно и на максимальной скорости!

    Как скачивать? · Что такое торрент? · Рейтинг и ограничения

    !ВНИМАНИЕ!
    Сайт не распространяет и не хранит электронные версии произведений, а занимается лишь лишь предоставлением доступа к создаваемому пользователями каталогу ссылок на торрент-файлы, которые содержат только списки хеш-сумм, убедительная просьба с жалобами обращаться напрямую к пользователю. Файлы для обмена на трекере предоставлены пользователями сайта, и администрация не несёт ответственности за их содержание. Просьба не заливать файлы, защищенные авторскими правами, а также файлы нелегального содержания!


    _________________
    [Профиль] [ЛС]
    Показать сообщения:    
    Ответить на тему

    Текущее время: Сегодня, в 22:04

    Часовой пояс: GMT + 2



    Вы не можете начинать темы
    Вы не можете отвечать на сообщения
    Вы не можете редактировать свои сообщения
    Вы не можете удалять свои сообщения
    Вы не можете голосовать в опросах
    Вы не можете прикреплять файлы к сообщениям
    Вы не можете скачивать файлы