BitTorrentTracker PerecTracker.org
BitTorrentTracker PerecTracker.org
    
Регистрация  ·  Вход
 
 · 
Забыли пароль?

  • [ATV3] Класс коррекции (Иван И. Твердовский) [2014, Россия, драма, WEB-DL HD (1080p)] Original

    Ответить на тему
     
    Автор Сообщение

    rechyn

    Создавать темы 04-Авг-2015 04:10

           

    [Цитировать]

    Класс коррекции
    7.005 / 10
    -Год выпуска: 2014
    Страна: Россия
    Жанр: драма
    Продолжительность: 85 мин.
    Перевод: Не требуется
    Оригинальная аудиодорожка: Есть
    Cубтитры: Нет
    Режиссёр: Иван И. Твердовский
    Сценарий: Дмитрий Ланчихин, Мария Бородянская, Иван И. Твердовский
    Продюсер: Наталья Мокрицкая, Ульяна Савельева, Мила Розанова
    Оператор: Федор Стручев
    Художник: Ренат Гонибов, Анна Чистова
    В ролях: Мария Поезжаева, Никита Кукушкин, Филипп Авдеев, Ольга Лапшина, Наталья Павленкова, Юлия Серина, Артем Маркарьян, Мария Урядова, Наталья Домерецкая, Елена Нестерова
    Бюджет: $1 500 000
    Сборы в России: $140 494
    Мировая премьера: 9 июля 2014
    Премьера (РФ): 25 сентября 2014, A Company
    Релиз на DVD: 28 октября 2014, CD Land
    Описание: После многолетнего домашнего обучения девочка-колясочница Лена Чехова переводится в среднюю общеобразовательную школу, в класс коррекционного обучения, объединивший в себе детей с различными отклонениями. Там она не только встречает свою первую любовь, но и впервые в своей жизни сталкивается с жестокостью окружающего мира.-Качество исходника: WEB-DL 1080p (HDClub)
    Качество: WEB-DL
    Тип: 1080p
    Контейнер: m4v
    Видео: 1920x1080 at 25.000 fps, MPEG-4 AVC, ~5200 kbps avg
    Аудио#1: Russian: 48 kHz, ААС, 2/0 (L,R), ~160.00 kbps avg
    Аудио#2: Russian: 48 kHz, AC3, 3/2 (L,C,R,l,r) + LFE ch, ~384 kbps avg-

    Знаете ли Вы, что...
  • Фильм снят по мотивам одноимённой повести Екатерины Мурашовой.
  • Съёмки проходили с августа по сентябрь 2013 года в Москве, Наро-Фоминске и посёлке Киевский. Съёмочный период занял 25 дней.
  • Главная героиня — Лена Чехова — названа режиссёром картины в честь его первой любви.
    -

    iTunes Meta Tags for country ru

    Name: Класс коррекции
    Artist: Иван И. Твердовский
    Genre: Drama
    Release Date: 2014-07-09T08:00:00Z
    Description: После многолетнего домашнего обучения девочка-колясочница Лена Чехова переводится в среднюю общеобразовательную школу, в класс коррекционного обучения, объединивший в себе детей с различными отклонениями. Там она не только встречает свою первую любовь, но и впервые в своей жизни сталкивается с жестокостью окружающего мира.
    Long Description: После многолетнего домашнего обучения девочка-колясочница Лена Чехова переводится в среднюю общеобразовательную школу, в класс коррекционного обучения, объединивший в себе детей с различными отклонениями. Там она не только встречает свою первую любовь, но и впервые в своей жизни сталкивается с жестокостью окружающего мира.
    Rating: 16+
    Studio: Новые люди
    Cast: Мария Поезжаева, Никита Кукушкин, Филипп Авдеев, Ольга Лапшина, Наталья Павленкова, Юлия Серина, Артем Маркарьян, Мария Урядова, Наталья Домерецкая, Елена Нестерова
    Director: Иван И. Твердовский
    Producers: Наталья Мокрицкая, Ульяна Савельева, Мила Розанова
    Screenwriters: Дмитрий Ланчихин, Мария Бородянская, Иван И. Твердовский
    Copyright: © 2014 Новые люди
    contentID: 932419810
    XID: Apple:vendor_id:2014-705350
    Sort Name: Класс коррекции

    MediaInfo 1080p Release

    General
    Complete name : Класс коррекции (1080p HD).m4v
    Format : MPEG-4
    Codec ID : M4V
    File size : 3.61 GiB
    Duration : 1h 28mn
    Overall bit rate mode : Variable
    Overall bit rate : 5 827 Kbps
    Movie name : Класс коррекции
    Performer : Иван И. Твердовский
    Director : Иван И. Твердовский
    Actor : Мария Поезжаева / Никита Кукушкин / Филипп Авдеев / Ольга Лапшина / Наталья Павленкова / Юлия Серина / Артем Маркарьян / Мария Урядова / Наталья Домерецкая / Елена Нестерова
    Screenplay by : Дмитрий Ланчихин / Мария Бородянская / Иван И. Твердовский
    Producer : Наталья Мокрицкая / Ульяна Савельева / Мила Розанова
    Production studio : Новые люди
    Genre : Drama
    ContentType : Short Film
    Description : После многолетнего домашнего обучения девочка-колясочница Лена Чехова переводится в среднюю общеобразовательную школу, в класс коррекционного обучения, объединивший в себе детей с различными отклонениями. Там она не только встречает свою первую любовь, но и впервые в своей жизни сталкивается с жестокостью окружающего мира.
    Recorded date : UTC 2014-07-09 08:00:00
    Encoded date : UTC 2015-07-03 12:43:22
    Tagged date : UTC 2015-07-03 12:46:32
    Copyright : © 2014 Новые люди
    Cover : Yes
    Rating : None
    Title/Sort : Класс коррекции
    LongDescription : После многолетнего домашнего обучения девочка-колясочница Лена Чехова переводится в среднюю общеобразовательную школу, в класс коррекционного обучения, объединивший в себе детей с различными отклонениями. Там она не только встречает свою первую любовь, но и впервые в своей жизни сталкивается с жестокостью окружающего мира.
    AppleStoreCatalogID : 932419810
    Vendor : Apple:vendor_id:2014-705350
    ContentRating : ru-movie|16+|375|
    Video #1
    ID : 1
    Format : AVC
    Format/Info : Advanced Video Codec
    Format profile : High@L4
    Format settings, CABAC : Yes
    Format settings, ReFrames : 4 frames
    Codec ID : avc1
    Codec ID/Info : Advanced Video Coding
    Duration : 1h 28mn
    Bit rate : 5 271 Kbps
    Width : 1 920 pixels
    Height : 1 080 pixels
    Display aspect ratio : 16:9
    Frame rate mode : Constant
    Frame rate : 25.000 fps
    Color space : YUV
    Chroma subsampling : 4:2:0
    Bit depth : 8 bits
    Scan type : Progressive
    Bits/(Pixel*Frame) : 0.102
    Stream size : 3.26 GiB (90%)
    Title : Main Program
    Language : Russian
    Encoded date : UTC 2015-07-03 12:43:22
    Tagged date : UTC 2015-07-03 12:45:50
    Color range : Limited
    Color primaries : BT.709
    Transfer characteristics : BT.709
    Matrix coefficients : BT.709
    Video #2
    ID : 5
    Format : JPEG
    Codec ID : jpeg
    Duration : 1h 28mn
    Bit rate mode : Variable
    Bit rate : 1 013 bps
    Width : 640 pixels
    Height : 360 pixels
    Display aspect ratio : 16:9
    Frame rate mode : Variable
    Frame rate : 0.003 fps
    Minimum frame rate : 0.002 fps
    Maximum frame rate : 0.006 fps
    Color space : YUV
    Chroma subsampling : 4:2:0
    Bit depth : 8 bits
    Compression mode : Lossy
    Bits/(Pixel*Frame) : 1.466
    Stream size : 701 KiB (0%)
    Title : Chapter Images
    Language : Russian
    Encoded date : UTC 2015-07-03 12:45:55
    Tagged date : UTC 2015-07-03 12:45:56
    Audio #1
    ID : 2
    Format : AAC
    Format/Info : Advanced Audio Codec
    Format profile : LC
    Codec ID : 40
    Duration : 1h 28mn
    Bit rate mode : Variable
    Bit rate : 165 Kbps
    Maximum bit rate : 235 Kbps
    Channel(s) : 2 channels
    Channel positions : Front: L R
    Sampling rate : 48.0 KHz
    Compression mode : Lossy
    Stream size : 104 MiB (3%)
    Title : Russian Stereo
    Language : Russian
    Encoded date : UTC 2015-07-03 12:43:22
    Tagged date : UTC 2015-07-03 12:43:38
    Audio #2
    ID : 3
    Format : AC-3
    Format/Info : Audio Coding 3
    Mode extension : CM (complete main)
    Format settings, Endianness : Big
    Codec ID : ac-3
    Duration : 1h 28mn
    Bit rate mode : Constant
    Bit rate : 384 Kbps
    Channel(s) : 6 channels
    Channel positions : Front: L C R, Side: L R, LFE
    Sampling rate : 48.0 KHz
    Bit depth : 16 bits
    Compression mode : Lossy
    Stream size : 243 MiB (7%)
    Title : Russian DD 5.1
    Language : Russian
    Encoded date : UTC 2015-07-03 12:43:22
    Tagged date : UTC 2015-07-03 12:45:50
    Menu #1
    00:00:00.000 : 1
    00:05:51.000 : 2
    00:10:52.000 : 3
    00:16:04.000 : 4
    00:22:21.000 : 5
    00:25:46.000 : 6
    00:31:04.000 : 7
    00:37:43.000 : 8
    00:42:01.000 : 9
    00:48:03.000 : 10
    00:54:26.000 : 11
    01:00:18.000 : 12
    01:03:36.000 : 13
    01:06:12.000 : 14
    01:10:41.000 : 15
    01:15:35.000 : 16
    01:21:24.000 : 17
    Menu #2
    ID : 4
    Codec ID : text
    Duration : 1h 28mn
    Title : Chapter Titles
    Language : Russian
    Encoded date : UTC 2015-07-03 12:45:50
    Tagged date : UTC 2015-07-03 12:45:50
    00:00:00.000 : 1
    00:05:51.000 : 2
    00:10:52.000 : 3
    00:16:04.000 : 4
    00:22:21.000 : 5
    00:25:46.000 : 6
    00:31:04.000 : 7
    00:37:43.000 : 8
    00:42:01.000 : 9
    00:48:03.000 : 10
    00:54:26.000 : 11
    01:00:18.000 : 12
    01:03:36.000 : 13
    01:06:12.000 : 14
    01:10:41.000 : 15
    01:15:35.000 : 16
    01:21:24.000 : 17
    Bit rate mode : VBR

    Скриншоты 1080p Release

    -

    Релиз подготовлен для просмотра на Apple TV, iPad, iPhone, iPod Touch.
    Для просмотра данного релиза на компьютере с ОС Windows рекомендуется использовать VLC media player
    Скачать .torrent

    Скачать торрент-файл бесплатно и на максимальной скорости!

    Как скачивать? · Что такое торрент? · Рейтинг и ограничения

    !ВНИМАНИЕ!
    Сайт не распространяет и не хранит электронные версии произведений, а занимается лишь лишь предоставлением доступа к создаваемому пользователями каталогу ссылок на торрент-файлы, которые содержат только списки хеш-сумм, убедительная просьба с жалобами обращаться напрямую к пользователю. Файлы для обмена на трекере предоставлены пользователями сайта, и администрация не несёт ответственности за их содержание. Просьба не заливать файлы, защищенные авторскими правами, а также файлы нелегального содержания!


  • _________________
    [Профиль] [ЛС]
    Показать сообщения:    
    Ответить на тему

    Текущее время: Сегодня, в 19:50

    Часовой пояс: GMT + 2



    Вы не можете начинать темы
    Вы не можете отвечать на сообщения
    Вы не можете редактировать свои сообщения
    Вы не можете удалять свои сообщения
    Вы не можете голосовать в опросах
    Вы не можете прикреплять файлы к сообщениям
    Вы не можете скачивать файлы