BitTorrentTracker PerecTracker.org
BitTorrentTracker PerecTracker.org
    
Регистрация  ·  Вход
 
 · 
Забыли пароль?

  • [ATV3] Вдали от обезумевшей толпы / Far from the Madding Crowd (Томас Винтерберг / Thomas Vinterberg ) [2015, США, Драма, мелодрама, BDRip, HD (1080p)] DUB + Original + sub (rus, eng, ukr)

    Ответить на тему
     
    Автор Сообщение

    rechyn

    Создавать темы 03-Авг-2015 20:58

           

    [Цитировать]

    Вдали от обезумевшей толпы / Far from the Madding Crowd
    -
    7.040 / 10 7.20 / 10
    -Год выпуска: 2015
    Страна: США
    Жанр: Драма, мелодрама
    Продолжительность: 01:58:40
    Перевод: Дублированный (iTunes)
    Оригинальная аудиодорожка: Есть
    Cубтитры: Русские форсированные, русские полные, украинские полные и английские полные
    Режиссёр: Томас Винтерберг
    Сценарий: Дэвид Николлс, Томас Харди
    Продюсер: Эндрю МакДональд, Аллон Рич, Анита Оверлэнд
    Оператор: Шарлотта Брюус Кристенсен
    Композитор: Крэйг Армстронг
    Художник: Кейв Куинн, Тим Блейк, Джулия Кастл
    Монтаж: Клер Симпсон
    В ролях: Кэри Маллиган, Маттиас Шонартс, Майкл Шин, Джуно Темпл, Том Стёрридж, Тилли Восберг, Марк Уингетт, Дориан Лок, Сэм Филлипс, Брэдли Холл
    Сборы в США: $12 193 500
    Сборы в мире: + $16 446 595 = $28 640 095
    Сборы в России: $256 639
    Мировая премьера: 17 апреля 2015
    Премьера (РФ): 2 июля 2015, «Двадцатый Век Фокс СНГ»
    Описание: Унаследовав от дядюшки богатую ферму, юная Батшеба Эвердин энергично берется за дело, набрав себе рабочих. Берет она и разорившегося фермера Габриэля Оука — человека опытного и честного. Габриэль в свое время просил её руки, но потерпел неудачу. Теперь ей предлагает руку и сердце сосед, зажиточный фермер Уильям Болдвуд, но своенравная Батшеба пока не соглашается стать женой, попросив себе время на раздумья. Встреча с самовлюбленным красавцем сержантом Фрэнком Троем становится роковой для Батшебы…-Качество исходника: BDRemux (HDClub)
    Качество: BDRip
    Тип: HD (1080p)
    Контейнер: M4V
    Видео: H.264, 1920x800, 2.40:1, 8 000 Kbps, 23.976 fps
    Аудио 1: Русский/Дублированный (iTunes), AAC / 2.0 / 157 Kbps / 48.0 KHz
    Аудио 2: Английский/Оригинальная дорожка , AAC / 2.0 / 158 Kbps / 48.0 KHz
    Аудио 3: Украинский/Дублированный (iTunes), AAC / 2.0 / 159 Kbps / 48.0 KHz
    Аудио 4: Русский/Дублированный (iTunes), AC-3 / 5.1 / 384 Kbps / 48.0 KHz
    Аудио 5: Английский/Оригинальная дорожка , AC-3 / 5.1 / 640 Kbps / 48.0 KHz
    Субтитры 1: Русские форсированные
    Субтитры 2: Русские полные
    Субтитры 3: Английские полные
    Субтитры 4: Украинские полные
    -

    iTunes Meta Tags

    Sort Name: Far from the Madding Crowd
    XID: Apple:vendor_id:2015-764613
    contentID: 983072556
    Copyright: © 2015 Twentieth Century Fox Film Corporation. All rights reserved.
    Screenwriters: Дэвид Николлс, Томас Харди
    Producers: Эндрю МакДональд, Аллон Рич, Анита Оверлэнд
    Director: Томас Винтерберг
    Cast: Кэри Маллиган, Маттиас Шонартс, Майкл Шин, Джуно Темпл, Том Стёрридж, Тилли Восберг, Марк Уингетт, Дориан Лок, Сэм Филлипс, Брэдли Холл
    Studio: Fox Searchlight
    Rating Annotation: Rated PG-13 for some sexuality and violence.
    Rating: 10
    Long Description: Унаследовав от дядюшки богатую ферму, юная Батшеба Эвердин энергично берется за дело, набрав себе рабочих. Берет она и разорившегося фермера Габриэля Оука - человека опытного и честного. Габриэль в свое время просил её руки, но потерпел неудачу. Теперь ей предлагает руку и сердце сосед, зажиточный фермер Уильям Болдвуд, но своенравная Батшеба пока не соглашается стать женой, попросив себе время на раздумья. Встреча с самовлюбленным красавцем сержантом Фрэнком Троем становится роковой для Батшебы...
    Description: Унаследовав от дядюшки богатую ферму, юная Батшеба Эвердин энергично берется за дело, набрав себе рабочих. Берет она и разорившегося фермера Габриэля Оука - человека опытного и честного. Габриэль в свое время просил её руки, но потерпел неудачу. Теперь ей предлагает руку и сердце сосед, зажиточный фермер Уильям Болдвуд, но своенравная Батшеба пока не соглашается стать женой, попросив себе время на раздумья. Встреча с самовлюбленным красавцем сержантом Фрэнком Троем становится роковой для Батшебы...
    Release Date: 2015-04-17T08:00:00Z
    Genre: Drama
    Artist: Thomas Vinterberg
    Name: Far from the Madding Crowd

    MediaInfo

    General
    Complete name                            : /Users/imac/HandBrake/Far from the Madding Crowd (1080p HD).m4v
    Format                                   : MPEG-4
    Codec ID                                 : M4V
    File size                                : 7.88 GiB
    Duration                                 : 1h 58mn
    Overall bit rate mode                    : Variable
    Overall bit rate                         : 9 500 Kbps
    Movie name                               : Far from the Madding Crowd
    Performer                                : Thomas Vinterberg
    Genre                                    : Drama
    Recorded date                            : UTC 2015-04-17 08:00:00
    Encoded date                             : UTC 2015-08-03 11:23:15
    Tagged date                              : UTC 2015-08-03 11:32:09
    Copyright                                : © 2015 Twentieth Century Fox Film Corporation. All rights reserved.
    Cover                                    : Yes
    sonm                                     : Far from the Madding Crowd
    desc                                     : Унаследовав от дядюшки богатую ферму, юная Батшеба Эвердин энергично берется за дело, набрав себе рабочих. Берет она и разорившегося фермера Габриэля Оука - человека опытного и честного. Габриэль в свое время просил её руки, но потерпел неудачу. Теперь ей предлагает руку и сердце сосед, зажиточный фермер Уильям Болдвуд, но своенравная Батшеба пока не соглашается стать женой, попросив себе время на раздумья. Встреча с самовлюбленным красавцем сержантом Фрэнком Троем становится роковой для Батшебы...
    ldes                                     : Унаследовав от дядюшки богатую ферму, юная Батшеба Эвердин энергично берется за дело, набрав себе рабочих. Берет она и разорившегося фермера Габриэля Оука - человека опытного и честного. Габриэль в свое время просил её руки, но потерпел неудачу. Теперь ей предлагает руку и сердце сосед, зажиточный фермер Уильям Болдвуд, но своенравная Батшеба пока не соглашается стать женой, попросив себе время на раздумья. Встреча с самовлюбленным красавцем сержантом Фрэнком Троем становится роковой для Батшебы...
    hdvd                                     : 2
    stik                                     : 9
    rtng                                     : 0
    cnID                                     : 983072556
    xid                                      : Apple:vendor_id:2015-764613
    iTunEXTC                                 : mpaa|PG-13|300|Rated PG-13 for some sexuality and violence.
    iTunMOVI                                 : <?xml version=\"1.0\" encoding=\"UTF-8\"?> / <!DOCTYPE plist PUBLIC \"-//Apple//DTD PLIST 1.0//EN\" \"http://anonym.to/?http://www.apple.com/DTDs/PropertyList-1.0.dtd\"> / <plist version=\"1.0\"> / <dict> /  <key>cast</key> /  <array> /   <dict> /    <key>name</key> /    <string>Кэри Маллиган</string> /   </dict> /   <dict> /    <key>name</key> /    <string>Маттиас Шонартс</string> /   </dict> /   <dict> /    <key>name</key> /    <string>Майкл Шин</string> /   </dict> /   <dict> /    <key>name</key> /    <string>Джуно Темпл</string> /   </dict> /   <dict> /    <key>name</key> /    <string>Том Стёрридж</string> /   </dict> /   <dict> /    <key>name</key> /    <string>Тилли Восберг</string> /   </dict> /   <dict> /    <key>name</key> /    <string>Марк Уингетт</string> /   </dict> /   <dict> /    <key>name</key> /    <string>Дориан Лок</string> /   </dict> /   <dict> /    <key>name</key> /    <string>Сэм Филлипс</string> /   </dict> /   <dict> /    <key>name</key> /    <string>Брэдли Холл</string> /   </dict> /  </array> /  <key>directors</key> /  <array> /   <dict> /    <key>name</key> /    <string>Томас Винтерберг</string> /   </dict> /  </array> /  <key>producers</key> /  <array> /   <dict> /    <key>name</key> /    <string>Эндрю МакДональд</string> /   </dict> /   <dict> /    <key>name</key> /    <string>Аллон Рич</string> /   </dict> /   <dict> /    <key>name</key> /    <string>Анита Оверлэнд</string> /   </dict> /  </array> /  <key>screenwriters</key> /  <array> /   <dict> /    <key>name</key> /    <string>Дэвид Николлс</string> /   </dict> /   <dict> /    <key>name</key> /    <string>Томас Харди</string> /   </dict> /  </array> /  <key>studio</key> /  <string>Fox Searchlight</string> / </dict> / </plist>
    Video #1
    ID                                       : 1
    Format                                   : AVC
    Format/Info                              : Advanced Video Codec
    Format profile                           : High@L4.0
    Format settings, CABAC                   : Yes
    Format settings, ReFrames                : 4 frames
    Codec ID                                 : avc1
    Codec ID/Info                            : Advanced Video Coding
    Duration                                 : 1h 58mn
    Bit rate mode                            : Variable
    Bit rate                                 : 8 000 Kbps
    Width                                    : 1 920 pixels
    Height                                   : 800 pixels
    Display aspect ratio                     : 2.40:1
    Frame rate mode                          : Variable
    Frame rate                               : 23.976 fps
    Minimum frame rate                       : 23.974 fps
    Maximum frame rate                       : 23.981 fps
    Color space                              : YUV
    Chroma subsampling                       : 4:2:0
    Bit depth                                : 8 bits
    Scan type                                : Progressive
    Bits/(Pixel*Frame)                       : 0.217
    Stream size                              : 6.62 GiB (84%)
    Writing library                          : x264 core 142 r2479 dd79a61
    Encoding settings                        : cabac=1 / ref=4 / deblock=1:-2:-2 / analyse=0x3:0x133 / me=umh / subme=10 / psy=1 / psy_rd=1.00:0.15 / mixed_ref=1 / me_range=32 / chroma_me=1 / trellis=2 / 8x8dct=1 / cqm=0 / deadzone=21,11 / fast_pskip=0 / chroma_qp_offset=-3 / threads=36 / lookahead_threads=6 / sliced_threads=0 / nr=0 / decimate=0 / interlaced=0 / bluray_compat=0 / constrained_intra=0 / bframes=16 / b_pyramid=2 / b_adapt=2 / b_bias=0 / direct=3 / weightb=1 / open_gop=0 / weightp=2 / keyint=240 / keyint_min=24 / scenecut=40 / intra_refresh=0 / rc_lookahead=60 / rc=2pass / mbtree=1 / bitrate=8000 / ratetol=1.0 / qcomp=0.70 / qpmin=0 / qpmax=69 / qpstep=4 / cplxblur=20.0 / qblur=0.5 / vbv_maxrate=25000 / vbv_bufsize=25000 / nal_hrd=none / filler=0 / ip_ratio=1.40 / aq=1:1.00
    Language                                 : English
    Encoded date                             : UTC 2015-08-03 11:23:15
    Tagged date                              : UTC 2015-08-03 11:23:37
    Color primaries                          : BT.709-5, BT.1361, IEC 61966-2-4, SMPTE RP177
    Transfer characteristics                 : BT.709-5, BT.1361
    Matrix coefficients                      : BT.709-5, BT.1361, IEC 61966-2-4 709, SMPTE RP177
    Video #2
    ID                                       : 12
    Format                                   : JPEG
    Codec ID                                 : jpeg
    Duration                                 : 1h 58mn
    Bit rate mode                            : Variable
    Bit rate                                 : 1 303 bps
    Width                                    : 640 pixels
    Height                                   : 266 pixels
    Display aspect ratio                     : 2.40:1
    Frame rate mode                          : Variable
    Frame rate                               : 0.004 fps
    Minimum frame rate                       : 0.003 fps
    Maximum frame rate                       : 0.008 fps
    Color space                              : YUV
    Chroma subsampling                       : 4:2:0
    Bit depth                                : 8 bits
    Compression mode                         : Lossy
    Bits/(Pixel*Frame)                       : 1.913
    Stream size                              : 1.24 MiB (0%)
    Language                                 : English
    Encoded date                             : UTC 2015-08-03 11:23:50
    Tagged date                              : UTC 2015-08-03 11:23:52
    Audio #1
    ID                                       : 2
    Format                                   : AAC
    Format/Info                              : Advanced Audio Codec
    Format profile                           : LC
    Codec ID                                 : 40
    Duration                                 : 1h 58mn
    Bit rate mode                            : Variable
    Bit rate                                 : 157 Kbps
    Maximum bit rate                         : 232 Kbps
    Channel(s)                               : 2 channels
    Channel positions                        : Front: L R
    Sampling rate                            : 48.0 KHz
    Compression mode                         : Lossy
    Stream size                              : 133 MiB (2%)
    Language                                 : Russian
    Encoded date                             : UTC 2015-08-03 11:23:15
    Tagged date                              : UTC 2015-08-03 11:23:27
    Audio #2
    ID                                       : 3
    Format                                   : AAC
    Format/Info                              : Advanced Audio Codec
    Format profile                           : LC
    Codec ID                                 : 40
    Duration                                 : 1h 58mn
    Bit rate mode                            : Variable
    Bit rate                                 : 158 Kbps
    Maximum bit rate                         : 252 Kbps
    Channel(s)                               : 2 channels
    Channel positions                        : Front: L R
    Sampling rate                            : 48.0 KHz
    Compression mode                         : Lossy
    Stream size                              : 134 MiB (2%)
    Language                                 : English
    Encoded date                             : UTC 2015-08-03 11:23:16
    Tagged date                              : UTC 2015-08-03 11:23:36
    Audio #3
    ID                                       : 4
    Format                                   : AAC
    Format/Info                              : Advanced Audio Codec
    Format profile                           : LC
    Codec ID                                 : 40
    Duration                                 : 1h 58mn
    Bit rate mode                            : Variable
    Bit rate                                 : 159 Kbps
    Maximum bit rate                         : 269 Kbps
    Channel(s)                               : 2 channels
    Channel positions                        : Front: L R
    Sampling rate                            : 48.0 KHz
    Compression mode                         : Lossy
    Stream size                              : 135 MiB (2%)
    Language                                 : Ukrainian
    Encoded date                             : UTC 2015-08-03 11:23:16
    Tagged date                              : UTC 2015-08-03 11:23:36
    Audio #4
    ID                                       : 5
    Format                                   : AC-3
    Format/Info                              : Audio Coding 3
    Mode extension                           : CM (complete main)
    Format settings, Endianness              : Big
    Codec ID                                 : ac-3
    Duration                                 : 1h 58mn
    Bit rate mode                            : Constant
    Bit rate                                 : 384 Kbps
    Channel(s)                               : 6 channels
    Channel positions                        : Front: L C R, Side: L R, LFE
    Sampling rate                            : 48.0 KHz
    Bit depth                                : 16 bits
    Compression mode                         : Lossy
    Stream size                              : 326 MiB (4%)
    Language                                 : Russian
    Encoded date                             : UTC 2015-08-03 11:23:16
    Tagged date                              : UTC 2015-08-03 11:23:24
    Audio #5
    ID                                       : 6
    Format                                   : AC-3
    Format/Info                              : Audio Coding 3
    Mode extension                           : CM (complete main)
    Format settings, Endianness              : Big
    Codec ID                                 : ac-3
    Duration                                 : 1h 58mn
    Bit rate mode                            : Constant
    Bit rate                                 : 640 Kbps
    Channel(s)                               : 6 channels
    Channel positions                        : Front: L C R, Side: L R, LFE
    Sampling rate                            : 48.0 KHz
    Bit depth                                : 16 bits
    Compression mode                         : Lossy
    Stream size                              : 543 MiB (7%)
    Language                                 : English
    Encoded date                             : UTC 2015-08-03 11:23:16
    Tagged date                              : UTC 2015-08-03 11:23:24
    Text #1
    ID                                       : 7
    Format                                   : Timed text
    Muxing mode                              : sbtl
    Codec ID                                 : tx3g
    Duration                                 : 1h 58mn
    Bit rate mode                            : Variable
    Bit rate                                 : 0 bps
    Stream size                              : 209 Bytes (0%)
    Language                                 : Russian
    Encoded date                             : UTC 2015-08-03 11:23:16
    Tagged date                              : UTC 2015-08-03 11:23:16
    Text #2
    ID                                       : 8
    Format                                   : Timed text
    Muxing mode                              : sbtl
    Codec ID                                 : tx3g
    Duration                                 : 1h 58mn
    Bit rate mode                            : Variable
    Bit rate                                 : 61 bps
    Stream size                              : 53.0 KiB (0%)
    Language                                 : Russian
    Encoded date                             : UTC 2015-08-03 11:23:16
    Tagged date                              : UTC 2015-08-03 11:23:16
    Text #3
    ID                                       : 9
    Format                                   : Timed text
    Muxing mode                              : sbtl
    Codec ID                                 : tx3g
    Duration                                 : 1h 53mn
    Bit rate mode                            : Variable
    Bit rate                                 : 39 bps
    Stream size                              : 32.7 KiB (0%)
    Language                                 : English
    Encoded date                             : UTC 2015-08-03 11:23:16
    Tagged date                              : UTC 2015-08-03 11:23:16
    Text #4
    ID                                       : 10
    Format                                   : Timed text
    Muxing mode                              : sbtl
    Codec ID                                 : tx3g
    Duration                                 : 1h 58mn
    Bit rate mode                            : Variable
    Bit rate                                 : 60 bps
    Stream size                              : 52.5 KiB (0%)
    Language                                 : Ukrainian
    Encoded date                             : UTC 2015-08-03 11:23:16
    Tagged date                              : UTC 2015-08-03 11:23:16
    Text #5
    ID                                       : 11
    Format                                   : Apple text
    Codec ID                                 : text
    Duration                                 : 1h 58mn
    Bit rate mode                            : Variable
    Bit rate                                 : 1 bps
    Stream size                              : 759 Bytes (0%)
    Language                                 : English
    Encoded date                             : UTC 2015-08-03 11:23:37
    Tagged date                              : UTC 2015-08-03 11:23:37
    Menu
    00:00:00.000                             : Chapter 1
    00:05:56.690                             : Chapter 2
    00:09:49.923                             : Chapter 3
    00:13:00.154                             : Chapter 4
    00:15:54.662                             : Chapter 5
    00:19:37.426                             : Chapter 6
    00:23:18.147                             : Chapter 7
    00:27:33.735                             : Chapter 8
    00:30:28.952                             : Chapter 9
    00:33:16.244                             : Chapter 10
    00:35:45.852                             : Chapter 11
    00:39:18.189                             : Chapter 12
    00:42:28.129                             : Chapter 13
    00:47:18.210                             : Chapter 14
    00:53:26.662                             : Chapter 15
    00:56:12.744                             : Chapter 16
    01:02:16.733                             : Chapter 17
    01:05:02.857                             : Chapter 18
    01:08:28.229                             : Chapter 19
    01:10:33.729                             : Chapter 20
    01:13:16.892                             : Chapter 21
    01:16:17.823                             : Chapter 22
    01:19:39.233                             : Chapter 23
    01:22:38.662                             : Chapter 24
    01:25:45.891                             : Chapter 25
    01:28:12.037                             : Chapter 26
    01:33:43.326                             : Chapter 27
    01:38:35.201                             : Chapter 28
    01:41:55.026                             : Chapter 29
    01:45:04.715                             : Chapter 30
    01:48:55.487                             : Chapter 31
    01:55:26.628                             : Chapter 32

    x264 лог

    x264 [info]: frame I:991   Avg QP:15.79  size:174664
    x264 [info]: frame P:35320 Avg QP:18.92  size: 70095
    x264 [info]: frame B:134402 Avg QP:20.36  size: 33218
    x264 [info]: consecutive B-frames:  2.2%  3.7%  7.5%  9.7% 13.1% 46.6%  6.1%  1.6%  2.2%  1.7%  1.9%  1.1%  1.3%  0.8%  0.3%  0.1%  0.2%
    x264 [info]: mb I  I16..4: 14.1% 71.0% 14.9%
    x264 [info]: mb P  I16..4:  2.8% 20.8%  1.3%  P16..4: 41.7% 15.3%  9.4%  0.3%  0.1%    skip: 8.3%
    x264 [info]: mb B  I16..4:  0.3%  3.6%  0.1%  B16..8: 37.4% 10.0%  2.2%  direct:10.4%  skip:35.9%  L0:42.4% L1:42.6% BI:14.9%
    x264 [info]: 8x8 transform intra:85.1% inter:50.8%
    x264 [info]: direct mvs  spatial:98.9% temporal:1.1%
    x264 [info]: coded y,uvDC,uvAC intra: 87.2% 75.9% 55.3% inter: 33.6% 25.0% 8.7%
    x264 [info]: i16 v,h,dc,p: 41% 13% 18% 28%
    x264 [info]: i8 v,h,dc,ddl,ddr,vr,hd,vl,hu:  9%  8% 16%  9% 12% 11% 11% 11% 13%
    x264 [info]: i4 v,h,dc,ddl,ddr,vr,hd,vl,hu:  9%  8%  7%  9% 15% 14% 14% 11% 14%
    x264 [info]: i8c dc,h,v,p: 57% 16% 15% 12%
    x264 [info]: Weighted P-Frames: Y:2.9% UV:1.3%
    x264 [info]: ref P L0: 47.2%  9.0% 30.3% 12.0%  1.4%  0.0%
    x264 [info]: ref B L0: 82.0% 15.0%  3.0%
    x264 [info]: ref B L1: 89.8% 10.2%
    x264 [info]: kb/s:7992.50

    Скриншоты

    -

    Релиз подготовлен для просмотра на Apple TV, iPad, iPhone, iPod Touch.
    Для просмотра данного релиза на компьютере с ОС Windows рекомендуется использовать VLC media player
    Скачать .torrent

    Скачать торрент-файл бесплатно и на максимальной скорости!

    Как скачивать? · Что такое торрент? · Рейтинг и ограничения

    !ВНИМАНИЕ!
    Сайт не распространяет и не хранит электронные версии произведений, а занимается лишь лишь предоставлением доступа к создаваемому пользователями каталогу ссылок на торрент-файлы, которые содержат только списки хеш-сумм, убедительная просьба с жалобами обращаться напрямую к пользователю. Файлы для обмена на трекере предоставлены пользователями сайта, и администрация не несёт ответственности за их содержание. Просьба не заливать файлы, защищенные авторскими правами, а также файлы нелегального содержания!


    _________________
    [Профиль] [ЛС]
    Показать сообщения:    
    Ответить на тему

    Текущее время: Сегодня, в 06:23

    Часовой пояс: GMT + 2



    Вы не можете начинать темы
    Вы не можете отвечать на сообщения
    Вы не можете редактировать свои сообщения
    Вы не можете удалять свои сообщения
    Вы не можете голосовать в опросах
    Вы не можете прикреплять файлы к сообщениям
    Вы не можете скачивать файлы