Register  ·  Log in
Forgot password?

  • Охота на индюшек / Turkey Shoot / Elimination Game (Джон Хьюит / Jon Hewitt) [2014, Австралия, Боевик, BDRip] VO (Хихидок)

    Reply to topic
    Author Message


    Post 03-Aug-2015 21:58



    Охота на индюшек / Turkey Shoot / Elimination Game
    Страна: Австралия
    Жанр: Боевик
    Год выпуска: 2014
    Продолжительность: 01:30:01
    релиз группа ExKinoRay
    Перевод: Одноголосый закадровый Хихидок, превод Enigma
    Cубтитры: нет
    Оригинальная аудиодорожка: нет
    Режиссер: Джон Хьюит / Jon Hewitt
    В ролях: Доминик Пёрселл, Вива Бьянка, Роберт Тейлор, Белинда МакКлори, Николас Хэммонд, Кармен Дункан, Роджер Уорд, Сюзанна МакДональд, Стефен Филлипс
    Описание: В результате шокирующих убийств гражданских лиц в зоне боевых действий, Рика Тайлера приговаривают к заключению и отправляют гнить в тюрьму для военных. Там ему предлагают принять участие в игре, в роли дичи. Ставка в игре, его жизнь или свобода.
    Доп. информация:

    носитель BDRemux 1080p (Релиз группа NovaLan)
    Качество видео: BDRip
    Формат видео: AVI
    Видео: XviD, 1726 Кбит/с, 720х400, 23.976 fps
    Аудио: AC3, 6 ch, 448 Кбит/с, 48.0 KHz


    Complete name : F:\Turkey.Shoot.2014.xixidok.BDRip.1400.avi
    Format : AVI
    Format/Info : Audio Video Interleave
    File size : 1.37 GiB
    Duration : 1h 30mn
    Overall bit rate : 2 183 Kbps
    Writing application : VirtualDubMod (build 2540/release)
    Writing library : VirtualDubMod build 2540/release
    Copyright : ExKinoRay
    ID : 0
    Format : MPEG-4 Visual
    Format profile : Advanced Simple@L5
    Format settings, BVOP : 1
    Format settings, QPel : No
    Format settings, GMC : No warppoints
    Format settings, Matrix : Custom
    Codec ID : XVID
    Codec ID/Hint : XviD
    Duration : 1h 30mn
    Bit rate : 1 726 Kbps
    Width : 720 pixels
    Height : 400 pixels
    Display aspect ratio : 16:9
    Frame rate : 23.976 fps
    Color space : YUV
    Chroma subsampling : 4:2:0
    Bit depth : 8 bits
    Scan type : Progressive
    Compression mode : Lossy
    Bits/(Pixel*Frame) : 0.250
    Stream size : 1.09 GiB (79%)
    Writing library : XviD 73
    ID : 1
    Format : AC-3
    Format/Info : Audio Coding 3
    Mode extension : CM (complete main)
    Format settings, Endianness : Big
    Codec ID : 2000
    Duration : 1h 30mn
    Bit rate mode : Constant
    Bit rate : 448 Kbps
    Channel(s) : 6 channels
    Channel positions : Front: L C R, Side: L R, LFE
    Sampling rate : 48.0 KHz
    Compression mode : Lossy
    Stream size : 288 MiB (21%)
    Alignment : Split accross interleaves
    Interleave, duration : 42 ms (1.00 video frame)
    Interleave, preload duration : 500 ms
    Title : xixidok

    Скриншот c названием фильма


    Download .torrent

    Download free and at maximum speed!

    How to Download? · What is a torrent? · Ratings and Limitations

    The site does not extend and does not store electronic(digital) versions of products, and only gives access to a reference catalogue created by users on torrent-files which contain only lists of the hash-sums, the earnest entreaty, with complaints(abuse) to access directly to the user. Files for an exchange on tracker are given by users of a site, and the administration does not bear the responsibility for their maintenance. The request to not fill in the files protected by copyrights, and also files of the illegal maintenance!

    [Profile] [PM]
    Display posts from previous:    
    Reply to topic

    The time now is: Today 01:39

    All times are GMT + 3 Hours

    You cannot post new topics in this forum
    You cannot reply to topics in this forum
    You cannot edit your posts in this forum
    You cannot delete your posts in this forum
    You cannot vote in polls in this forum
    You cannot attach files in this forum
    You cannot download files in this forum