BitTorrentTracker PerecTracker.org
BitTorrentTracker PerecTracker.org
    
Регистрация  ·  Вход
 
 · 
Забыли пароль?

  • Охота на индюшек / Turkey Shoot / Elimination Game (Джон Хьюит / Jon Hewitt) [2014, Австралия, Боевик, BDRip] VO (Хихидок)

    Ответить на тему
     
    Автор Сообщение

    Light

    Создавать темы 03-Авг-2015 20:58

           

    [Цитировать]

    Охота на индюшек / Turkey Shoot / Elimination Game
    Страна: Австралия
    Жанр: Боевик
    Год выпуска: 2014
    Продолжительность: 01:30:01
    релиз группа ExKinoRay
    Перевод: Одноголосый закадровый Хихидок, превод Enigma
    Cубтитры: нет
    Оригинальная аудиодорожка: нет
    Режиссер: Джон Хьюит / Jon Hewitt
    В ролях: Доминик Пёрселл, Вива Бьянка, Роберт Тейлор, Белинда МакКлори, Николас Хэммонд, Кармен Дункан, Роджер Уорд, Сюзанна МакДональд, Стефен Филлипс
    Описание: В результате шокирующих убийств гражданских лиц в зоне боевых действий, Рика Тайлера приговаривают к заключению и отправляют гнить в тюрьму для военных. Там ему предлагают принять участие в игре, в роли дичи. Ставка в игре, его жизнь или свобода.
    Доп. информация:

    носитель BDRemux 1080p (Релиз группа NovaLan)
    Сэмпл: http://sendfile.su/1141459
    Качество видео: BDRip
    Формат видео: AVI
    Видео: XviD, 1726 Кбит/с, 720х400, 23.976 fps
    Аудио: AC3, 6 ch, 448 Кбит/с, 48.0 KHz

    MediaInfo

    General
    Complete name : F:\Turkey.Shoot.2014.xixidok.BDRip.1400.avi
    Format : AVI
    Format/Info : Audio Video Interleave
    File size : 1.37 GiB
    Duration : 1h 30mn
    Overall bit rate : 2 183 Kbps
    Writing application : VirtualDubMod 1.5.10.2 (build 2540/release)
    Writing library : VirtualDubMod build 2540/release
    Copyright : ExKinoRay
    Video
    ID : 0
    Format : MPEG-4 Visual
    Format profile : Advanced Simple@L5
    Format settings, BVOP : 1
    Format settings, QPel : No
    Format settings, GMC : No warppoints
    Format settings, Matrix : Custom
    Codec ID : XVID
    Codec ID/Hint : XviD
    Duration : 1h 30mn
    Bit rate : 1 726 Kbps
    Width : 720 pixels
    Height : 400 pixels
    Display aspect ratio : 16:9
    Frame rate : 23.976 fps
    Color space : YUV
    Chroma subsampling : 4:2:0
    Bit depth : 8 bits
    Scan type : Progressive
    Compression mode : Lossy
    Bits/(Pixel*Frame) : 0.250
    Stream size : 1.09 GiB (79%)
    Writing library : XviD 73
    Audio
    ID : 1
    Format : AC-3
    Format/Info : Audio Coding 3
    Mode extension : CM (complete main)
    Format settings, Endianness : Big
    Codec ID : 2000
    Duration : 1h 30mn
    Bit rate mode : Constant
    Bit rate : 448 Kbps
    Channel(s) : 6 channels
    Channel positions : Front: L C R, Side: L R, LFE
    Sampling rate : 48.0 KHz
    Compression mode : Lossy
    Stream size : 288 MiB (21%)
    Alignment : Split accross interleaves
    Interleave, duration : 42 ms (1.00 video frame)
    Interleave, preload duration : 500 ms
    Title : xixidok

    Скриншот c названием фильма


    Скриншоты











    Скачать .torrent

    Скачать торрент-файл бесплатно и на максимальной скорости!

    Как скачивать? · Что такое торрент? · Рейтинг и ограничения

    !ВНИМАНИЕ!
    Сайт не распространяет и не хранит электронные версии произведений, а занимается лишь лишь предоставлением доступа к создаваемому пользователями каталогу ссылок на торрент-файлы, которые содержат только списки хеш-сумм, убедительная просьба с жалобами обращаться напрямую к пользователю. Файлы для обмена на трекере предоставлены пользователями сайта, и администрация не несёт ответственности за их содержание. Просьба не заливать файлы, защищенные авторскими правами, а также файлы нелегального содержания!


    _________________
    [Профиль] [ЛС]
    Показать сообщения:    
    Ответить на тему

    Текущее время: Сегодня, в 12:10

    Часовой пояс: GMT + 2



    Вы не можете начинать темы
    Вы не можете отвечать на сообщения
    Вы не можете редактировать свои сообщения
    Вы не можете удалять свои сообщения
    Вы не можете голосовать в опросах
    Вы не можете прикреплять файлы к сообщениям
    Вы не можете скачивать файлы