Register  ·  Log in
Forgot password?

  • Ночь была темна / Тьма была ночью / Dark was the night (Джек Хеллер / Jack Heller) [2014, США, триллер, WEB-DLRip] MVO (Scarlet Heaven Studio)

    Reply to topic
    Author Message


    Post 03-Aug-2015 21:58



    Ночь была темна / Тьма была ночью / Dark was the night
    Страна: США
    Жанр: триллер
    Год выпуска: 2014
    Продолжительность: 01:38:32
    Перевод: Любительский (многоголосый закадровый) Scarlet Heaven Studio
    Cубтитры: нет
    Оригинальная аудиодорожка: нет
    Режиссер: Джек Хеллер / Jack Heller
    В ролях: Кевин Дюран, Лукас Хаас, Стив Эйджи, Ник Дамичи, Хит Фриман, Сабина Гадеки
    Описание: Вырубка леса в захолустном местечке Мэйден Вудс приводит к нарушению природного баланса и пробуждению древнего зла. В схватку за жизни местных жителей вступают отважный шериф и его верный помощник.
    Доп. информация:
    Перевод: Antonio
    Качество видео: WEB-DLRip
    Формат видео: AVI
    Видео: DivX 5 720x304 23.98fps 1584Kbps
    Аудио: Dolby AC3 48000Hz 6 Audio Channel 448Kbps


    Complete name : D:\TORRENTS\Dark was the night. MVO.avi
    Format : AVI
    Format/Info : Audio Video Interleave
    File size : 1.41 GiB
    Duration : 1h 38mn
    Overall bit rate : 2 042 Kbps
    ID : 0
    Format : MPEG-4 Visual
    Format profile : Advanced Simple@L5
    Format settings, BVOP : 2
    Format settings, QPel : No
    Format settings, GMC : No warppoints
    Format settings, Matrix : Default (H.263)
    Codec ID : DX50
    Codec ID/Hint : DivX 5
    Duration : 1h 38mn
    Bit rate : 1 585 Kbps
    Width : 720 pixels
    Height : 304 pixels
    Display aspect ratio : 2.35:1
    Frame rate : 23.976 fps
    Color space : YUV
    Chroma subsampling : 4:2:0
    Bit depth : 8 bits
    Scan type : Progressive
    Compression mode : Lossy
    Bits/(Pixel*Frame) : 0.302
    Stream size : 1.09 GiB (78%)
    Writing library : XviD 66
    ID : 1
    Format : AC-3
    Format/Info : Audio Coding 3
    Mode extension : CM (complete main)
    Format settings, Endianness : Big
    Codec ID : 2000
    Duration : 1h 38mn
    Source duration : 1h 38mn
    Bit rate mode : Constant
    Bit rate : 448 Kbps
    Channel(s) : 6 channels
    Channel positions : Front: L C R, Side: L R, LFE
    Sampling rate : 48.0 KHz
    Bit depth : 16 bits
    Compression mode : Lossy
    Stream size : 316 MiB (22%)
    Alignment : Aligned on interleaves
    Interleave, duration : 42 ms (1.00 video frame)

    Скриншот c названием фильма


    Download .torrent

    Download free and at maximum speed!

    How to Download? · What is a torrent? · Ratings and Limitations

    The site does not extend and does not store electronic(digital) versions of products, and only gives access to a reference catalogue created by users on torrent-files which contain only lists of the hash-sums, the earnest entreaty, with complaints(abuse) to access directly to the user. Files for an exchange on tracker are given by users of a site, and the administration does not bear the responsibility for their maintenance. The request to not fill in the files protected by copyrights, and also files of the illegal maintenance!

    [Profile] [PM]
    Display posts from previous:    
    Reply to topic

    The time now is: Today 06:29

    All times are GMT + 3 Hours

    You cannot post new topics in this forum
    You cannot reply to topics in this forum
    You cannot edit your posts in this forum
    You cannot delete your posts in this forum
    You cannot vote in polls in this forum
    You cannot attach files in this forum
    You cannot download files in this forum