BitTorrentTracker PerecTracker.org
BitTorrentTracker PerecTracker.org
    
Регистрация  ·  Вход
 
 · 
Забыли пароль?

  • (Jewish, Klezmer, Yiddish) VA - Yikhes : Early Klezmer Recordings 1911-1939 - 1995 (1991), FLAC (tracks+.cue) lossless

    Ответить на тему
     
    Автор Сообщение

    Columb

    Создавать темы 21-Май-2013 07:40

           

    [Цитировать]

    VA / Yikhes: Early Klezmer Recordings 1911-1939
    Жанр: Jewish, Klezmer, Yiddish
    Страна-производитель диска: Germany
    Год издания диска: 1995 (1991)
    Издатель (лейбл): Trikont
    Номер по каталогу: US-0179
    Аудиокодек: FLAC
    Тип рипа: tracks+.cue
    Битрейт аудио: lossless
    Продолжительность: 56:29
    Источник: CD
    сайт-источник/ник/другое: Max Monteiro
    Наличие сканов в содержимом раздачи: да
    Треклист:
    01. Naftule Brandwein: Rumenishe Doina 3:07
    02. Yenkovitz & Goldberg: Yoshke Fort Avek 3:23
    03. Naftule Brandwein: Vi Tsvey Iz Naftule der Driter 3:17
    04. Josef Solinski: Romanian Fantasy, Part 4 3:25
    05. Naftule Brandwein: Naftule Shpilt far dem Rebn 2:52
    06. Max Leibowitz: Yiddish Hora – A Heymish Freylekhs 3:27
    07. State Ensemble of Jewish Folk Musicians: Jewish Dance 2:39
    08. Belf’s Rumanian Orchestra: Yikhes 2:57
    09. Naftule Brandwein: Heyser Bulgar 3:09
    10. Dave Tarras: A Rumenisher Nign 3:09
    11. Leon Ahl: Doina 3:05
    12. Joseph Moskowitz: Buhusher Khusid 2:57
    13. Mishka Ziganoff: Galitsyaner Khusid 3:15
    14. Abe Schwartz: National Hora, Part 1 3:50
    15. Raderman’s and Beckerman’s Orchestra: An Eyropeyishe Kolomeyke 2:53
    16. Naftule Brandwein: Der Ziser Bulgar 3:12
    17. Belf’s Rumanian Orchestra: Simkhas Toyre 2:34
    18. Naftule Brandwein: Naftule, Shpil Es Nokh Amol 3:18

    Лог создания рипа

    Exact Audio Copy V1.0 beta 3 from 29. August 2011
    EAC extraction logfile from 13. May 2013, 10:26
    VA / Yikhes: Early Klezmer Recordings 1911-1939
    Used drive : SlimtypeeNAU508 5 Adapter: 1 ID: 0
    Read mode : Secure
    Utilize accurate stream : Yes
    Defeat audio cache : Yes
    Make use of C2 pointers : No
    Read offset correction : 6
    Overread into Lead-In and Lead-Out : No
    Fill up missing offset samples with silence : Yes
    Delete leading and trailing silent blocks : No
    Null samples used in CRC calculations : Yes
    Used interface : Native Win32 interface for Win NT & 2000
    Gap handling : Appended to previous track
    Used output format : User Defined Encoder
    Selected bitrate : 768 kBit/s
    Quality : High
    Add ID3 tag : No
    Command line compressor : C:\Program Files (x86)\Exact Audio Copy\Flac\flac.exe
    Additional command line options : -8 -V -T "ARTIST=%artist%" -T "TITLE=%title%" -T "ALBUM=%albumtitle%" -T "DATE=%year%" -T "TRACKNUMBER=%tracknr%" -T "GENRE=%genre%" -T "PERFORMER=%albuminterpret%" -T "COMPOSER=%composer%" %haslyrics%--tag-from-file=LYRICS="%lyricsfile%"%haslyrics% -T "ALBUMARTIST=%albumartist%" -T "DISCNUMBER=%cdnumber%" -T "TOTALDISCS=%totalcds%" -T "TOTALTRACKS=%numtracks%" -T "COMMENT=%comment%" %source% -o %dest%
    TOC of the extracted CD
    Track | Start | Length | Start sector | End sector
    ---------------------------------------------------------
    1 | 0:00.00 | 3:06.58 | 0 | 14007
    2 | 3:06.58 | 3:23.10 | 14008 | 29242
    3 | 6:29.68 | 3:17.05 | 29243 | 44022
    4 | 9:46.73 | 3:24.65 | 44023 | 59387
    5 | 13:11.63 | 2:51.60 | 59388 | 72272
    6 | 16:03.48 | 3:26.40 | 72273 | 87762
    7 | 19:30.13 | 2:39.35 | 87763 | 99722
    8 | 22:09.48 | 2:56.67 | 99723 | 112989
    9 | 25:06.40 | 3:09.23 | 112990 | 127187
    10 | 28:15.63 | 3:08.72 | 127188 | 141359
    11 | 31:24.60 | 3:05.03 | 141360 | 155237
    12 | 34:29.63 | 2:57.15 | 155238 | 168527
    13 | 37:27.03 | 3:14.65 | 168528 | 183142
    14 | 40:41.68 | 3:50.35 | 183143 | 200427
    15 | 44:32.28 | 2:53.05 | 200428 | 213407
    16 | 47:25.33 | 3:12.22 | 213408 | 227829
    17 | 50:37.55 | 2:33.60 | 227830 | 239364
    18 | 53:11.40 | 3:17.65 | 239365 | 254204
    Track 1
    Filename C:\EAC rips\01 - Rumenishe Doina.wav
    Pre-gap length 0:00:02.00
    Peak level 69.4 %
    Extraction speed 2.0 X
    Track quality 100.0 %
    Test CRC B45B2162
    Copy CRC B45B2162
    Cannot be verified as accurate (confidence 3) [5AF2B2B1], AccurateRip returned [68346B8D] (AR v2)
    Copy OK
    Track 2
    Filename C:\EAC rips\02 - Yoshke Fort Avek.wav
    Pre-gap length 0:00:03.40
    Peak level 43.1 %
    Extraction speed 2.2 X
    Track quality 100.0 %
    Test CRC 8C3248A9
    Copy CRC 8C3248A9
    Cannot be verified as accurate (confidence 3) [92F1BBED], AccurateRip returned [E5BC43F6] (AR v2)
    Copy OK
    Track 3
    Filename C:\EAC rips\03 - Vi Tsvey Iz Naftule der Driter.wav
    Pre-gap length 0:00:03.30
    Peak level 64.8 %
    Extraction speed 2.4 X
    Track quality 100.0 %
    Test CRC 78C29B2C
    Copy CRC 78C29B2C
    Cannot be verified as accurate (confidence 3) [BC000812], AccurateRip returned [CE2C2C7F] (AR v2)
    Copy OK
    Track 4
    Filename C:\EAC rips\04 - Romanian Fantasy, Part 4.wav
    Pre-gap length 0:00:03.60
    Peak level 54.9 %
    Extraction speed 2.1 X
    Track quality 99.9 %
    Test CRC 23F74A52
    Copy CRC 23F74A52
    Cannot be verified as accurate (confidence 3) [DA7A9657], AccurateRip returned [5049AFFA] (AR v2)
    Copy OK
    Track 5
    Filename C:\EAC rips\05 - Naftule Shpilt far dem Rebn.wav
    Pre-gap length 0:00:03.55
    Peak level 49.4 %
    Extraction speed 2.6 X
    Track quality 100.0 %
    Test CRC D5B97C53
    Copy CRC D5B97C53
    Cannot be verified as accurate (confidence 3) [C1DF1ED9], AccurateRip returned [50C40356] (AR v2)
    Copy OK
    Track 6
    Filename C:\EAC rips\06 - Yiddish Hora - A Heymish Freylekhs.wav
    Pre-gap length 0:00:03.18
    Peak level 51.2 %
    Extraction speed 2.8 X
    Track quality 100.0 %
    Test CRC 50DBF7F9
    Copy CRC 50DBF7F9
    Cannot be verified as accurate (confidence 3) [A183675D], AccurateRip returned [AC2D17EA] (AR v2)
    Copy OK
    Track 7
    Filename C:\EAC rips\07 - Jewish Dance.wav
    Pre-gap length 0:00:03.30
    Peak level 50.5 %
    Extraction speed 2.9 X
    Track quality 100.0 %
    Test CRC CCFE7FE5
    Copy CRC CCFE7FE5
    Cannot be verified as accurate (confidence 3) [25F651A0], AccurateRip returned [9AD208F9] (AR v2)
    Copy OK
    Track 8
    Filename C:\EAC rips\08 - Yikhes.wav
    Pre-gap length 0:00:03.50
    Peak level 43.2 %
    Extraction speed 3.0 X
    Track quality 100.0 %
    Test CRC F178D013
    Copy CRC F178D013
    Cannot be verified as accurate (confidence 2) [47847F9D], AccurateRip returned [0300AB67] (AR v2)
    Copy OK
    Track 9
    Filename C:\EAC rips\09 - Heyser Bulgar.wav
    Pre-gap length 0:00:03.16
    Peak level 71.5 %
    Extraction speed 3.1 X
    Track quality 100.0 %
    Test CRC 607B134E
    Copy CRC 607B134E
    Cannot be verified as accurate (confidence 3) [E80A5CA3], AccurateRip returned [8FEAC1D8] (AR v2)
    Copy OK
    Track 10
    Filename C:\EAC rips\10 - A Rumenisher Nign.wav
    Pre-gap length 0:00:02.70
    Peak level 51.3 %
    Extraction speed 3.3 X
    Track quality 100.0 %
    Test CRC FEACB386
    Copy CRC FEACB386
    Cannot be verified as accurate (confidence 3) [798325FA], AccurateRip returned [3CB769C9] (AR v2)
    Copy OK
    Track 11
    Filename C:\EAC rips\11 - Doina.wav
    Pre-gap length 0:00:03.20
    Peak level 63.9 %
    Extraction speed 3.4 X
    Track quality 100.0 %
    Test CRC 9E61BE49
    Copy CRC 9E61BE49
    Cannot be verified as accurate (confidence 3) [0D57F26A], AccurateRip returned [CD04BF49] (AR v2)
    Copy OK
    Track 12
    Filename C:\EAC rips\12 - Buhusher Khusid.wav
    Pre-gap length 0:00:03.50
    Peak level 48.5 %
    Extraction speed 3.4 X
    Track quality 100.0 %
    Test CRC 19F4B32A
    Copy CRC 19F4B32A
    Cannot be verified as accurate (confidence 3) [111DB5C2], AccurateRip returned [F69B0A70] (AR v2)
    Copy OK
    Track 13
    Filename C:\EAC rips\13 - Galitsyaner Khusid.wav
    Pre-gap length 0:00:03.03
    Peak level 50.0 %
    Extraction speed 2.8 X
    Track quality 99.9 %
    Test CRC 65197FD7
    Copy CRC 65197FD7
    Cannot be verified as accurate (confidence 3) [34BA548D], AccurateRip returned [28C7375A] (AR v2)
    Copy OK
    Track 14
    Filename C:\EAC rips\14 - National Hora, Part 1.wav
    Pre-gap length 0:00:03.08
    Peak level 45.7 %
    Extraction speed 3.8 X
    Track quality 100.0 %
    Test CRC 1EFE78AF
    Copy CRC 1EFE78AF
    Cannot be verified as accurate (confidence 2) [42854316], AccurateRip returned [287E1BC0] (AR v2)
    Copy OK
    Track 15
    Filename C:\EAC rips\15 - An Eyropeyishe Kolomeyke.wav
    Pre-gap length 0:00:02.70
    Peak level 60.9 %
    Extraction speed 3.6 X
    Track quality 100.0 %
    Test CRC 8D770C0F
    Copy CRC 8D770C0F
    Cannot be verified as accurate (confidence 3) [8CD1370C], AccurateRip returned [47F948AD] (AR v2)
    Copy OK
    Track 16
    Filename C:\EAC rips\16 - Der Ziser Bulgar.wav
    Pre-gap length 0:00:02.63
    Peak level 60.9 %
    Extraction speed 3.9 X
    Track quality 100.0 %
    Test CRC 7D2C68E3
    Copy CRC 7D2C68E3
    Cannot be verified as accurate (confidence 3) [74AB3A72], AccurateRip returned [12245BCD] (AR v2)
    Copy OK
    Track 17
    Filename C:\EAC rips\17 - Simkhas Toyre.wav
    Pre-gap length 0:00:03.20
    Peak level 37.3 %
    Extraction speed 3.8 X
    Track quality 100.0 %
    Test CRC EA6F8E1C
    Copy CRC EA6F8E1C
    Cannot be verified as accurate (confidence 3) [C9772C00], AccurateRip returned [EC4B38CF] (AR v2)
    Copy OK
    Track 18
    Filename C:\EAC rips\18 - Naftule, Shpil Es Nokh Amol.wav
    Pre-gap length 0:00:02.62
    Peak level 67.2 %
    Extraction speed 3.2 X
    Track quality 99.9 %
    Test CRC 50C9976A
    Copy CRC 50C9976A
    Cannot be verified as accurate (confidence 2) [413A1647], AccurateRip returned [4CBE5247] (AR v2)
    Copy OK
    No tracks could be verified as accurate
    You may have a different pressing from the one(s) in the database
    No errors occurred
    End of status report
    ---- CUETools DB Plugin V2.1.4
    [CTDB TOCID: aApFkZEoWNSDh9HGrmaFaoD6GWY-] found
    Submit result: aApFkZEoWNSDh9HGrmaFaoD6GWY- has been confirmed
    Track | CTDB Status
    1 | (2/2) Accurately ripped
    2 | (2/2) Accurately ripped
    3 | (2/2) Accurately ripped
    4 | (2/2) Accurately ripped
    5 | (2/2) Accurately ripped
    6 | (1/2) Accurately ripped, or (1/2) differs in 1 samples @00:01:51
    7 | (2/2) Accurately ripped
    8 | (2/2) Accurately ripped
    9 | (2/2) Accurately ripped
    10 | (2/2) Accurately ripped
    11 | (2/2) Accurately ripped
    12 | (2/2) Accurately ripped
    13 | (2/2) Accurately ripped
    14 | (2/2) Accurately ripped
    15 | (2/2) Accurately ripped
    16 | (2/2) Accurately ripped
    17 | (2/2) Accurately ripped
    18 | (2/2) Accurately ripped
    ==== Log checksum 16B5668EE806F242E07D6FC6BE085EC9A5E1273444C345AC6FEBAD380DB54281 ====

    Содержание индексной карты (.CUE)

    REM GENRE Klezmer
    REM DATE 1995
    REM DISCID 1B0D3D12
    REM COMMENT "ExactAudioCopy v1.0b3"
    PERFORMER "VA"
    TITLE "Yikhes: Early Klezmer Recordings 1911-1939"
    FILE "01 - Rumenishe Doina.wav" WAVE
    TRACK 01 AUDIO
    TITLE "Rumenishe Doina"
    PERFORMER "Naftule Brandwein"
    INDEX 01 00:00:00
    TRACK 02 AUDIO
    TITLE "Yoshke Fort Avek"
    PERFORMER "Yenkovitz & Goldberg"
    INDEX 00 03:03:18
    FILE "02 - Yoshke Fort Avek.wav" WAVE
    INDEX 01 00:00:00
    TRACK 03 AUDIO
    TITLE "Vi Tsvey Iz Naftule der Driter"
    PERFORMER "Naftule Brandwein"
    INDEX 00 03:19:55
    FILE "03 - Vi Tsvey Iz Naftule der Driter.wav" WAVE
    INDEX 01 00:00:00
    TRACK 04 AUDIO
    TITLE "Romanian Fantasy, Part 4"
    PERFORMER "Josef Solinski"
    INDEX 00 03:13:20
    FILE "04 - Romanian Fantasy, Part 4.wav" WAVE
    INDEX 01 00:00:00
    TRACK 05 AUDIO
    TITLE "Naftule Shpilt far dem Rebn"
    PERFORMER "Naftule Brandwein"
    INDEX 00 03:21:10
    FILE "05 - Naftule Shpilt far dem Rebn.wav" WAVE
    INDEX 01 00:00:00
    TRACK 06 AUDIO
    TITLE "Yiddish Hora - A Heymish Freylekhs"
    PERFORMER "Max Leibowitz"
    INDEX 00 02:48:42
    FILE "06 - Yiddish Hora - A Heymish Freylekhs.wav" WAVE
    INDEX 01 00:00:00
    TRACK 07 AUDIO
    TITLE "Jewish Dance"
    PERFORMER "State Ensemble of Jewish Folk Musicians"
    INDEX 00 03:23:10
    FILE "07 - Jewish Dance.wav" WAVE
    INDEX 01 00:00:00
    TRACK 08 AUDIO
    TITLE "Yikhes"
    PERFORMER "Belf's Rumanian Orchestra"
    INDEX 00 02:35:60
    FILE "08 - Yikhes.wav" WAVE
    INDEX 01 00:00:00
    TRACK 09 AUDIO
    TITLE "Heyser Bulgar"
    PERFORMER "Naftule Brandwein"
    INDEX 00 02:53:51
    FILE "09 - Heyser Bulgar.wav" WAVE
    INDEX 01 00:00:00
    TRACK 10 AUDIO
    TITLE "A Rumenisher Nign"
    PERFORMER "Dave Tarras"
    INDEX 00 03:06:28
    FILE "10 - A Rumenisher Nign.wav" WAVE
    INDEX 01 00:00:00
    TRACK 11 AUDIO
    TITLE "Doina"
    PERFORMER "Leon Ahl"
    INDEX 00 03:05:52
    FILE "11 - Doina.wav" WAVE
    INDEX 01 00:00:00
    TRACK 12 AUDIO
    TITLE "Buhusher Khusid"
    PERFORMER "Joseph Moskowitz"
    INDEX 00 03:01:28
    FILE "12 - Buhusher Khusid.wav" WAVE
    INDEX 01 00:00:00
    TRACK 13 AUDIO
    TITLE "Galitsyaner Khusid"
    PERFORMER "Mishka Ziganoff"
    INDEX 00 02:54:12
    FILE "13 - Galitsyaner Khusid.wav" WAVE
    INDEX 01 00:00:00
    TRACK 14 AUDIO
    TITLE "National Hora, Part 1"
    PERFORMER "Abe Schwartz"
    INDEX 00 03:11:57
    FILE "14 - National Hora, Part 1.wav" WAVE
    INDEX 01 00:00:00
    TRACK 15 AUDIO
    TITLE "An Eyropeyishe Kolomeyke"
    PERFORMER "Raderman's and Beckerman's Orchestra"
    INDEX 00 03:47:40
    FILE "15 - An Eyropeyishe Kolomeyke.wav" WAVE
    INDEX 01 00:00:00
    TRACK 16 AUDIO
    TITLE "Der Ziser Bulgar"
    PERFORMER "Naftule Brandwein"
    INDEX 00 02:50:17
    FILE "16 - Der Ziser Bulgar.wav" WAVE
    INDEX 01 00:00:00
    TRACK 17 AUDIO
    TITLE "Simkhas Toyre"
    PERFORMER "Belf's Rumanian Orchestra"
    INDEX 00 03:09:02
    FILE "17 - Simkhas Toyre.wav" WAVE
    INDEX 01 00:00:00
    TRACK 18 AUDIO
    TITLE "Naftule, Shpil Es Nokh Amol"
    PERFORMER "Naftule Brandwein"
    INDEX 00 02:30:73
    FILE "18 - Naftule, Shpil Es Nokh Amol.wav" WAVE
    INDEX 01 00:00:00

    CUETools

    [CUETools log; Date: 13.05.2013 10:30:23; Version: 2.1.4]
    [CTDB TOCID: aApFkZEoWNSDh9HGrmaFaoD6GWY-] found.
    Track | CTDB Status
    1 | (3/3) Accurately ripped
    2 | (3/3) Accurately ripped
    3 | (3/3) Accurately ripped
    4 | (3/3) Accurately ripped
    5 | (3/3) Accurately ripped
    6 | (2/3) Accurately ripped, or (1/3) differs in 1 samples @00:01:51
    7 | (3/3) Accurately ripped
    8 | (3/3) Accurately ripped
    9 | (3/3) Accurately ripped
    10 | (3/3) Accurately ripped
    11 | (3/3) Accurately ripped
    12 | (3/3) Accurately ripped
    13 | (3/3) Accurately ripped
    14 | (3/3) Accurately ripped
    15 | (3/3) Accurately ripped
    16 | (3/3) Accurately ripped
    17 | (3/3) Accurately ripped
    18 | (3/3) Accurately ripped
    [AccurateRip ID: 00251498-01ed4b58-1b0d3d12] found.
    Track [ CRC | V2 ] Status
    01 [e003d0df|5af2b2b1] (0+0/5) No match
    02 [676d48c4|92f1bbed] (0+0/5) No match
    03 [9f45c824|bc000812] (0+0/5) No match
    04 [53ceae19|da7a9657] (0+0/5) No match
    05 [962494dc|c1df1ed9] (0+0/5) No match
    06 [7e2ae18c|a183675d] (0+0/5) No match
    07 [b017ca86|25f651a0] (0+0/5) No match
    08 [4f702cb5|47847f9d] (0+0/4) No match
    09 [a0114970|e80a5ca3] (0+0/5) No match
    10 [a4507544|798325fa] (0+0/5) No match
    11 [a35ddfaa|0d57f26a] (0+0/5) No match
    12 [bfe2c875|111db5c2] (0+0/5) No match
    13 [73749989|34ba548d] (0+0/5) No match
    14 [eb360469|42854316] (0+0/4) No match
    15 [856c731a|8cd1370c] (0+0/5) No match
    16 [b3d48a4b|74ab3a72] (0+0/5) No match
    17 [fbe29142|c9772c00] (0+0/5) No match
    18 [6619e845|413a1647] (0+0/4) No match
    Offsetted by 1857:
    01 [68346b8d] (3/5) Accurately ripped
    02 [e5bc43f6] (3/5) Accurately ripped
    03 [ce2c2c7f] (3/5) Accurately ripped
    04 [5049affa] (3/5) Accurately ripped
    05 [50c40356] (3/5) Accurately ripped
    06 [ac2d17ea] (3/5) Accurately ripped
    07 [9ad208f9] (3/5) Accurately ripped
    08 [0300ab67] (2/4) Accurately ripped
    09 [8feac1d8] (3/5) Accurately ripped
    10 [3cb769c9] (3/5) Accurately ripped
    11 [cd04bf49] (3/5) Accurately ripped
    12 [f69b0a70] (3/5) Accurately ripped
    13 [28c7375a] (3/5) Accurately ripped
    14 [287e1bc0] (2/4) Accurately ripped
    15 [47f948ad] (3/5) Accurately ripped
    16 [12245bcd] (3/5) Accurately ripped
    17 [ec4b38cf] (3/5) Accurately ripped
    18 [4cbe5247] (2/4) Accurately ripped
    Offsetted by 1823:
    01 [fcf0ab71] (0/5) No match (V2 was not tested)
    02 [43824c52] (0/5) No match (V2 was not tested)
    03 [f12817e9] (0/5) No match (V2 was not tested)
    04 [11137698] (0/5) No match (V2 was not tested)
    05 [541a9022] (0/5) No match (V2 was not tested)
    06 [a1f5a26e] (0/5) No match (V2 was not tested)
    07 [f8201933] (0/5) No match (V2 was not tested)
    08 [1041fcc3] (0/4) No match (V2 was not tested)
    09 [82b3e808] (0/5) No match (V2 was not tested)
    10 [9fcd609f] (0/5) No match (V2 was not tested)
    11 [42acc5ab] (0/5) No match (V2 was not tested)
    12 [0d0a169a] (0/5) No match (V2 was not tested)
    13 [3646e018] (0/5) No match (V2 was not tested)
    14 [e74467b2] (0/4) No match (V2 was not tested)
    15 [6f8f96a7] (0/5) No match (V2 was not tested)
    16 [276ff589] (0/5) No match (V2 was not tested)
    17 [a0119c95] (0/5) No match (V2 was not tested)
    18 [b714eb03] (0/4) No match (V2 was not tested)
    Track Peak [ CRC32 ] [W/O NULL] [ LOG ]
    -- 71.5 [6C050FBA] [459612A0]
    01 69.4 [B45B2162] [5FC47FB4] CRC32
    02 43.1 [8C3248A9] [E9A24E7C] CRC32
    03 64.8 [78C29B2C] [2C861DD3] CRC32
    04 54.9 [23F74A52] [E5727022] CRC32
    05 49.4 [D5B97C53] [C61395C7] CRC32
    06 51.2 [50DBF7F9] [536305F2] CRC32
    07 50.5 [CCFE7FE5] [F407B710] CRC32
    08 43.2 [F178D013] [861D1EEF] CRC32
    09 71.5 [607B134E] [22B07C35] CRC32
    10 51.3 [FEACB386] [7597D57B] CRC32
    11 63.9 [9E61BE49] [B3A8926B] CRC32
    12 48.5 [19F4B32A] [80D70763] CRC32
    13 50.0 [65197FD7] [7A42C710] CRC32
    14 45.7 [1EFE78AF] [A9C3CAF1] CRC32
    15 60.9 [8D770C0F] [677CA71D] CRC32
    16 60.9 [7D2C68E3] [C701F769] CRC32
    17 37.3 [EA6F8E1C] [18785BDB] CRC32
    18 67.2 [50C9976A] [E515015B] CRC32
    Доп. информация: "Yikhes" is the revised bilingual edition of "Yikhes. Frühe Klezmer-Aufnahmen von 1907-1939 aus der Sammlung von Prof. Martin Schwartz", which was published in German in 1991.

    Состав

    01. Rumenishe Doina
    Naftule Brandwein, C clarinet with probably Sam Spielman, trombone, and unknown violonist, percussionist and pianist
    New York, September 1922
    02. Yoshke Fort Avek
    Max Yenkovitz, accordion, Goldberg, cymbal
    New York, April 1913
    03. Vi Tsvey Iz Naftule der Driter
    Naftule Brandwein, C clarinet with probably Sam Spielman, trombone, and unknown pianist
    New York, April 1923
    04. Romanian Fantasy, Part 4
    Josef Solinski, violin with unknown cimbalist
    Warsaw, April 1911
    05. Naftule Shpilt far dem Rebn
    Naftule Brandwein, C clarinet with probably Sam Spielman, trombone, and unknown pianist
    New York, April 1923
    06. Yiddish Hora – A Heymish Freylekhs
    Max Leibowitz, violin, Silver, cimbal accompaniment
    New York, September 1919
    07. Jewish Dance
    State Ensemble of Jewish Folk Musicians
    Kiev, late 1930s
    08. Yikhes
    Rumynskii Orkestra Bel’fa (Belf’s Rumanian Orchestra)
    C clarinet, 2 violins, piano
    Bucharest, ca. 1911
    09. Heyser Bulgar
    Naftule Brandwein, C clarinet, with probably Sam Spielman, trombone, and unknown violonist, pianist, drummer
    New York, May 1923
    10. A Rumenisher Nign
    Dave Tarras, C clarinet with unknown pianist, trombonist, banjo player and violonist (possibly directed by Abe Schwartz)
    New York, April 1927
    11. Doina
    Leon Ahl, violin with unknown cimbalist
    Eastern Europe, ca. 1921
    12. Buhusher Khusid
    Joseph Moskowitz, cimbalom, Max Yussim, piano
    New York, March 1916
    13. Galitsyaner Khusid
    Mishka Ziganoff, accordion solo
    New York, January 1921
    14. National Hora, Part 1
    Abe Schwartz, violin, Sylvia Schwartz, piano
    New York, circa May 1920
    15. An Eyropeyishe Kolomeyke
    Raderman’s and Beckerman’s Orchestra featuring Alex Fiedel, cornet, with Harry Raderman, trombone, and unknown pianist and drummer
    New York, April 1924
    16. Der Ziser Bulgar
    Naftule Brandwein, C clarinet with probably Sam Spielman, trombone, and unknow pianist
    New York, April 1923
    17. Simkhas Toyre
    Rumynskii Orkestra Bel’fa (Belf’s Rumanian Orchestra)
    C clarinet, 2 violins, piano
    Bucharest, ca. 1911
    18. Naftule, Shpil Es Nokh Amol
    Naftule Brandwein, C clarinet, with probably Sam Spielman, trombone, and unknown pianist and drummer
    New York, April 1925
    Скачать .torrent

    Скачать торрент-файл бесплатно и на максимальной скорости!

    Как скачивать? · Что такое торрент? · Рейтинг и ограничения

    !ВНИМАНИЕ!
    Сайт не распространяет и не хранит электронные версии произведений, а занимается лишь лишь предоставлением доступа к создаваемому пользователями каталогу ссылок на торрент-файлы, которые содержат только списки хеш-сумм, убедительная просьба с жалобами обращаться напрямую к пользователю. Файлы для обмена на трекере предоставлены пользователями сайта, и администрация не несёт ответственности за их содержание. Просьба не заливать файлы, защищенные авторскими правами, а также файлы нелегального содержания!

    [Профиль] [ЛС]
    Показать сообщения:    
    Ответить на тему

    Текущее время: Сегодня, в 13:40

    Часовой пояс: GMT + 2



    Вы не можете начинать темы
    Вы не можете отвечать на сообщения
    Вы не можете редактировать свои сообщения
    Вы не можете удалять свои сообщения
    Вы не можете голосовать в опросах
    Вы не можете прикреплять файлы к сообщениям
    Вы не можете скачивать файлы