BitTorrentTracker PerecTracker.org
BitTorrentTracker PerecTracker.org
    
Регистрация  ·  Вход
 
 · 
Забыли пароль?

  • Запретное удовольствие / Zakazane uvolneni (Jan Hrebejk) [2014, Чехия, комедия, DVDRip] VO (Kass) + Original Cze

    Ответить на тему
     
    Автор Сообщение

    Light

    Создавать темы 03-Авг-2015 04:10

           

    [Цитировать]

    Запретное удовольствие / Zakázané uvolnění
    Страна: Чехия
    Жанр: комедия
    Год выпуска: 2014
    Продолжительность: 01:17:43
    Перевод: Одноголосый закадровый (женский) Kass
    Cубтитры: нет
    Оригинальная аудиодорожка: чешский
    Режиссер: Jan Hrebejk
    В ролях: Зузана Ставна / Zuzana Stavna, Гана Вагнерова / Hana Vagnerova, Яна Стрикова / Jana Strykova, Ондрей Сокол / Ondrej Sokol, Игорь Орозович / Igor Orozovic, Томаш Ержабек / Tomas Jerabek, Норберт Лихи / Norbert Lichy, Даниел Шпинар / Daniel Spinar
    Описание: Безобидный обычай похищения невесты (представьте, и в Чехии такой есть) по капризу судьбы превращается в нечто несусветное.
    Захолустная пивная пуста – идет чемпионат Европы по хоккею, а телевизор неисправен. К тому же разражается страшная гроза, отрезая от мира невесту, свидетеля жениха и бармена. Все эти трое – женского пола, что само по себе любопытно. К их услугам целый бар спиртного, а спиртное, как известно, развязывает язык. И не только.
    Этот фильм чехи определили как комедию, очень справедливо определили, хотя кто-то увидит в нем и драму. Едкий, забавный и жизненный фильм.
    Снято по пьесе, которая успешно идет в театрах, и тем, как раскручивается действие, напоминает пьесы Пристли.
    Доп. информация: Исходник - оригинальный чешский диск.
    Сэмпл: http://sendfile.su/1142658
    Качество видео: DVDRip
    Формат видео: MKV
    Видео: H.264, 720x432, 25,000 fps, 2000 kbps
    Аудио 1: Русский (Dolby AC3, 6 ch) 448 Кбит/сек, 48,0 КГц
    Аудио 2: Cesky (Dolby AC3, 6 ch) 384 Кбит/сек, 48,0 КГц - отдельным файлом

    MediaInfo

    General
    Unique ID : 247451765687763413446719778530172819434 (0xBA2979FE10546A7645C28BB8F33F57EA)
    Complete name : C:\Downloads\Zakazane_uvolneni_2014_DVDrip_RusVO+Cze\Zakazane_uvolneni_2014_DVDrip_RusVO.mkv
    Format : Matroska
    Format version : Version 2
    File size : 1.33 GiB
    Duration : 1h 17mn
    Overall bit rate : 2 450 Kbps
    Writing application : HandBrake 0.10.0 2014112200
    Writing library : Lavf55.12.0
    Video
    ID : 1
    Format : AVC
    Format/Info : Advanced Video Codec
    Format profile : Main@L4
    Format settings, CABAC : Yes
    Format settings, ReFrames : 7 frames
    Codec ID : V_MPEG4/ISO/AVC
    Duration : 1h 17mn
    Bit rate : 2 000 Kbps
    Width : 720 pixels
    Height : 432 pixels
    Display aspect ratio : 2.40:1
    Original display aspect ratio : 2.40:1
    Frame rate mode : Constant
    Frame rate : 25.000 fps
    Color space : YUV
    Chroma subsampling : 4:2:0
    Bit depth : 8 bits
    Scan type : Progressive
    Bits/(Pixel*Frame) : 0.257
    Stream size : 1.06 GiB (80%)
    Writing library : x264 core 142 r2479 dd79a61
    Encoding settings : cabac=1 / ref=7 / deblock=1:-1:-1 / analyse=0x1:0x111 / me=umh / subme=9 / psy=1 / psy_rd=1.00:0.15 / mixed_ref=1 / me_range=24 / chroma_me=1 / trellis=1 / 8x8dct=0 / cqm=0 / deadzone=21,11 / fast_pskip=1 / chroma_qp_offset=-3 / threads=12 / lookahead_threads=1 / sliced_threads=0 / nr=0 / decimate=1 / interlaced=0 / bluray_compat=0 / constrained_intra=0 / bframes=3 / b_pyramid=2 / b_adapt=1 / b_bias=0 / direct=1 / weightb=1 / open_gop=0 / weightp=1 / keyint=250 / keyint_min=25 / scenecut=40 / intra_refresh=0 / rc_lookahead=30 / rc=2pass / mbtree=1 / bitrate=2000 / ratetol=1.0 / qcomp=0.60 / qpmin=0 / qpmax=69 / qpstep=4 / cplxblur=20.0 / qblur=0.5 / vbv_maxrate=20000 / vbv_bufsize=25000 / nal_hrd=none / filler=0 / ip_ratio=1.40 / aq=1:1.00
    Default : Yes
    Forced : No
    Color range : Limited
    Color primaries : BT.601 PAL
    Transfer characteristics : BT.709
    Matrix coefficients : BT.601
    Audio
    ID : 2
    Format : AC-3
    Format/Info : Audio Coding 3
    Mode extension : CM (complete main)
    Format settings, Endianness : Big
    Codec ID : A_AC3
    Duration : 1h 17mn
    Bit rate mode : Constant
    Bit rate : 448 Kbps
    Channel(s) : 6 channels
    Channel positions : Front: L C R, Side: L R, LFE
    Sampling rate : 48.0 KHz
    Compression mode : Lossy
    Stream size : 249 MiB (18%)
    Title : Surround
    Language : Russian
    Default : Yes
    Forced : No
    Menu
    00:00:00.000 : :Chapter 1
    00:05:00.200 : :Chapter 2
    00:10:00.200 : :Chapter 3
    00:15:00.200 : :Chapter 4
    00:20:00.200 : :Chapter 5
    00:25:00.200 : :Chapter 6
    00:30:00.200 : :Chapter 7
    00:35:00.200 : :Chapter 8
    00:40:00.200 : :Chapter 9
    00:45:00.200 : :Chapter 10
    00:50:00.200 : :Chapter 11
    00:55:00.200 : :Chapter 12
    01:00:00.200 : :Chapter 13
    01:05:00.200 : :Chapter 14
    01:10:00.200 : :Chapter 15

    Скриншот c названием фильма

    Скриншоты

    Скачать .torrent

    Скачать торрент-файл бесплатно и на максимальной скорости!

    Как скачивать? · Что такое торрент? · Рейтинг и ограничения

    !ВНИМАНИЕ!
    Сайт не распространяет и не хранит электронные версии произведений, а занимается лишь лишь предоставлением доступа к создаваемому пользователями каталогу ссылок на торрент-файлы, которые содержат только списки хеш-сумм, убедительная просьба с жалобами обращаться напрямую к пользователю. Файлы для обмена на трекере предоставлены пользователями сайта, и администрация не несёт ответственности за их содержание. Просьба не заливать файлы, защищенные авторскими правами, а также файлы нелегального содержания!


    _________________
    [Профиль] [ЛС]
    Показать сообщения:    
    Ответить на тему

    Текущее время: Сегодня, в 11:54

    Часовой пояс: GMT + 2



    Вы не можете начинать темы
    Вы не можете отвечать на сообщения
    Вы не можете редактировать свои сообщения
    Вы не можете удалять свои сообщения
    Вы не можете голосовать в опросах
    Вы не можете прикреплять файлы к сообщениям
    Вы не можете скачивать файлы