BitTorrentTracker PerecTracker.org
BitTorrentTracker PerecTracker.org
    
Регистрация  ·  Вход
 
 · 
Забыли пароль?

  • Шоссе / Highway (Джеймс Кокс) [2001, США, драма, криминал, WEB-DL HD (720p)] DVO, Original + SUB (eng)

    Ответить на тему
     
    Автор Сообщение

    rechyn

    Создавать темы 02-Авг-2015 20:58

           

    [Цитировать]

    Шоссе / Highway
    "По дороге без конца..."
    7.172 / 10
    -Год выпуска: 2001
    Страна: США
    Жанр: драма, криминал
    Продолжительность: 97 мин.
    Перевод: Двухголосый закадровый перевод
    Оригинальная аудиодорожка: Есть
    Cубтитры: Английские полные
    Режиссёр: Джеймс Кокс
    Сценарий: Скотт Розенберг
    Продюсер: Гай Ридель, Скотт Розенберг, Билл Бимел
    Оператор: Мишель Аматье, Мауро Фиоре
    Композитор: -
    Художник: Бэрри Робисан, Гилберт Вонг, Сьюзэн Мэтисон
    Монтаж: Крэйг Вуд
    В ролях: Джаред Лето, Джейк Джилленхол, Сэльма Блэр, Джон К. МакГинли, Джереми Пивен, Арден Майрин, Кимберли Кейтс, Марк Ролстон, Джаррет Томас, Стивен Шеллен
    Бюджет: $14 000 000
    Мировая премьера: 26 марта 2002
    Релиз на DVD: 19 июня 2008, CP-Digital
    Описание: Два отвязных приятеля - Джек и Пайлот - решают уехать из Лас-Вегаса в Сиэттл на своей видавшей виды машине. Джеку надо унести ноги от рогатого мужа, а Пайлот ищет приключений и свою настоящую любовь.
    По дороге развеселые друзья посещают вечеринки, знакомятся с девушкой Кэсси и чудаком Джонни Лисом, превращают свою машину в кабриолет и посещают шоу мальчика-аллигатора. Но по пятам за ними едут бандиты, а Сиэттл оказывается не тем местом, где можно было найти счастье.-Качество исходника: WEB-DL 720p (HDClub)
    Качество: WEB-DL
    Тип: 720p
    Контейнер: m4v
    Видео: 1280x544 at 23.976 fps, MPEG-4 AVC, ~4100 kbps avg
    Аудио#1: Russian: 48 kHz, ААС, 2/0 (L,R), ~160.00 kbps avg |Двухголосый закадровый|
    Аудио#2: English: 48 kHz, ААС, 2/0 (L,R), ~160.00 kbps avg
    Аудио#3: Russian: 48 kHz, AC3, 3/2 (L,C,R,l,r) + LFE ch, ~448.00 kbps avg |Двухголосый закадровый|
    Аудио#4: English: 48 kHz, AC3, 3/2 (L,C,R,l,r) + LFE ch, ~384.00 kbps avg
    Субтитры №1: English: |Полные|-

    iTunes Meta Tags for country us

    Name: Highway
    Artist: James Cox
    Genre: Drama
    Release Date: 2002-03-26T08:00:00Z
    Description: Два отвязных приятеля - Джек и Пайлот - решают уехать из Лас-Вегаса в Сиэттл на своей видавшей виды машине. Джеку надо унести ноги от рогатого мужа, а Пайлот ищет приключений и свою настоящую любовь...
    Long Description: Два отвязных приятеля - Джек и Пайлот - решают уехать из Лас-Вегаса в Сиэттл на своей видавшей виды машине. Джеку надо унести ноги от рогатого мужа, а Пайлот ищет приключений и свою настоящую любовь.
    По дороге развеселые друзья посещают вечеринки, знакомятся с девушкой Кэсси и чудаком Джонни Лисом, превращают свою машину в кабриолет и посещают шоу мальчика-аллигатора. Но по пятам за ними едут бандиты, а Сиэттл оказывается не тем местом, где можно было найти счастье.
    Rating: R
    Rating Annotation: Rated R for strong sexuality, drug content and language.
    Studio: New Line
    Cast: Джаред Лето, Джейк Джилленхол, Сэльма Блэр, Джон К. МакГинли, Джереми Пивен, Арден Майрин, Кимберли Кейтс, Марк Ролстон, Джаррет Томас, Стивен Шеллен
    Director: Джеймс Кокс
    Producers: Гай Ридель, Скотт Розенберг, Билл Бимел
    Screenwriters: Скотт Розенберг
    Copyright: © 2001 New Line Productions, Inc. All rights reserved.
    contentID: 306047627
    XID: Apple:vendor_id:2001-2054
    Sort Name: Highway

    MediaInfo 720p Release

    General
    Complete name : Highway (HD).m4v
    Format : MPEG-4
    Codec ID : M4V
    File size : 3.54 GiB
    Duration : 1h 36mn
    Overall bit rate mode : Variable
    Overall bit rate : 5 231 Kbps
    Movie name : Highway
    Performer : James Cox
    Director : Джеймс Кокс
    Actor : Джаред Лето / Джейк Джилленхол / Сэльма Блэр / Джон К. МакГинли / Джереми Пивен / Арден Майрин / Кимберли Кейтс / Марк Ролстон / Джаррет Томас / Стивен Шеллен
    Screenplay by : Скотт Розенберг
    Producer : Гай Ридель / Скотт Розенберг / Билл Бимел
    Production studio : New Line
    Genre : Drama
    ContentType : Short Film
    Description : Два отвязных приятеля - Джек и Пайлот - решают уехать из Лас-Вегаса в Сиэттл на своей видавшей виды машине. Джеку надо унести ноги от рогатого мужа, а Пайлот ищет приключений и свою настоящую любовь...
    Recorded date : UTC 2002-03-26 08:00:00
    Encoded date : UTC 2015-07-31 07:23:55
    Tagged date : UTC 2015-07-31 07:31:04
    Copyright : © 2001 New Line Productions, Inc. All rights reserved.
    Cover : Yes
    Rating : None
    Title/Sort : Highway
    LongDescription : Два отвязных приятеля - Джек и Пайлот - решают уехать из Лас-Вегаса в Сиэттл на своей видавшей виды машине. Джеку надо унести ноги от рогатого мужа, а Пайлот ищет приключений и свою настоящую любовь. / По дороге развеселые друзья посещают вечеринки, знакомятся с девушкой Кэсси и чудаком Джонни Лисом, превращают свою машину в кабриолет и посещают шоу мальчика-аллигатора. Но по пятам за ними едут бандиты, а Сиэттл оказывается не тем местом, где можно было найти счастье.
    HDVideo : Yes
    AppleStoreCatalogID : 306047627
    Vendor : Apple:vendor_id:2001-2054
    ContentRating : mpaa|R|400|Rated R for strong sexuality, drug content and language.
    Video #1
    ID : 1
    Format : AVC
    Format/Info : Advanced Video Codec
    Format profile : Main@L3.1
    Format settings, CABAC : No
    Format settings, ReFrames : 2 frames
    Codec ID : avc1
    Codec ID/Info : Advanced Video Coding
    Duration : 1h 36mn
    Bit rate : 4 075 Kbps
    Width : 1 280 pixels
    Height : 544 pixels
    Display aspect ratio : 2.35:1
    Frame rate mode : Variable
    Frame rate : 23.976 fps
    Minimum frame rate : 23.810 fps
    Maximum frame rate : 24.390 fps
    Color space : YUV
    Chroma subsampling : 4:2:0
    Bit depth : 8 bits
    Scan type : Progressive
    Bits/(Pixel*Frame) : 0.244
    Stream size : 2.76 GiB (78%)
    Title : Main Program
    Language : English
    Encoded date : UTC 2015-07-31 07:23:55
    Tagged date : UTC 2015-07-31 07:26:55
    Color range : Limited
    Color primaries : BT.709
    Transfer characteristics : BT.709
    Matrix coefficients : BT.709
    Video #2
    ID : 8
    Format : JPEG
    Codec ID : jpeg
    Duration : 1h 36mn
    Bit rate mode : Variable
    Bit rate : 760 bps
    Width : 640 pixels
    Height : 272 pixels
    Display aspect ratio : 2.35:1
    Frame rate mode : Variable
    Frame rate : 0.003 fps
    Minimum frame rate : 0.001 fps
    Maximum frame rate : 0.008 fps
    Color space : YUV
    Chroma subsampling : 4:2:0
    Bit depth : 8 bits
    Compression mode : Lossy
    Bits/(Pixel*Frame) : 1.455
    Stream size : 619 KiB (0%)
    Title : Chapter Images
    Language : English
    Encoded date : UTC 2015-07-31 07:27:01
    Tagged date : UTC 2015-07-31 07:27:02
    Audio #1
    ID : 2
    Format : AAC
    Format/Info : Advanced Audio Codec
    Format profile : LC
    Codec ID : 40
    Duration : 1h 36mn
    Bit rate mode : Variable
    Bit rate : 150 Kbps
    Maximum bit rate : 211 Kbps
    Channel(s) : 2 channels
    Channel positions : Front: L R
    Sampling rate : 48.0 KHz
    Compression mode : Lossy
    Stream size : 104 MiB (3%)
    Title : Russian DVO Stereo
    Language : Russian
    Encoded date : UTC 2015-07-31 07:23:55
    Tagged date : UTC 2015-07-31 07:24:00
    Audio #2
    ID : 3
    Format : AAC
    Format/Info : Advanced Audio Codec
    Format profile : LC
    Codec ID : 40
    Duration : 1h 36mn
    Bit rate mode : Variable
    Bit rate : 164 Kbps
    Maximum bit rate : 259 Kbps
    Channel(s) : 2 channels
    Channel positions : Front: L R
    Sampling rate : 48.0 KHz
    Compression mode : Lossy
    Stream size : 114 MiB (3%)
    Title : English Stereo
    Language : English
    Encoded date : UTC 2015-07-31 07:23:55
    Tagged date : UTC 2015-07-31 07:24:00
    Audio #3
    ID : 4
    Format : AC-3
    Format/Info : Audio Coding 3
    Mode extension : CM (complete main)
    Format settings, Endianness : Big
    Codec ID : ac-3
    Duration : 1h 36mn
    Bit rate mode : Constant
    Bit rate : 448 Kbps
    Channel(s) : 6 channels
    Channel positions : Front: L C R, Side: L R, LFE
    Sampling rate : 48.0 KHz
    Bit depth : 16 bits
    Compression mode : Lossy
    Stream size : 311 MiB (9%)
    Title : Russian DVO DD 5.1
    Language : Russian
    Encoded date : UTC 2015-07-31 07:23:55
    Tagged date : UTC 2015-07-31 07:26:55
    Audio #4
    ID : 5
    Format : AC-3
    Format/Info : Audio Coding 3
    Mode extension : CM (complete main)
    Format settings, Endianness : Big
    Codec ID : ac-3
    Duration : 1h 36mn
    Bit rate mode : Constant
    Bit rate : 384 Kbps
    Channel(s) : 6 channels
    Channel positions : Front: L C R, Side: L R, LFE
    Sampling rate : 48.0 KHz
    Bit depth : 16 bits
    Compression mode : Lossy
    Stream size : 266 MiB (7%)
    Title : English DD 5.1
    Language : English
    Encoded date : UTC 2015-07-31 07:23:55
    Tagged date : UTC 2015-07-31 07:26:55
    Text
    ID : 6
    Format : Timed Text
    Muxing mode : sbtl
    Codec ID : tx3g
    Duration : 1h 35mn
    Bit rate mode : Variable
    Bit rate : 92 bps
    Stream size : 64.4 KiB (0%)
    Title : English Subtitle
    Language : English
    Encoded date : UTC 2015-07-31 07:23:55
    Tagged date : UTC 2015-07-31 07:23:55
    Menu #1
    00:00:00.000 : Main Titles/Vegas Youth
    00:04:11.000 : The Jack & Jilly Game
    00:07:48.000 : "You Gotta Bolt, Jack!"
    00:09:57.000 : Running From Infamy
    00:16:14.000 : Scawldy's Cornucopia
    00:22:43.000 : The Dan D Fine Ladies
    00:28:08.000 : The Girl From Bishop
    00:31:42.000 : What's In A Name
    00:34:09.000 : Johnny The Fox
    00:39:10.000 : Dreaming Of Amy
    00:43:00.000 : The Right Way To Travel
    00:47:38.999 : The Boy
    00:54:21.999 : "Do You Think He's Happy?"
    00:57:15.000 : 1,056 Times
    01:08:42.000 : Pandas & Alligator Boys
    01:14:29.000 : The Breakup
    01:19:54.000 : Seattle - The Vigil
    01:24:38.000 : Done Running
    01:27:57.000 : Re-entry Problems/"Forever"
    01:32:21.000 : End Credits
    Menu #2
    ID : 7
    Codec ID : text
    Duration : 1h 36mn
    Title : Chapter Titles
    Language : English
    Encoded date : UTC 2015-07-31 07:26:55
    Tagged date : UTC 2015-07-31 07:26:55
    00:00:00.000 : Main Titles/Vegas Youth
    00:04:11.000 : The Jack & Jilly Game
    00:07:48.000 : "You Gotta Bolt, Jack!"
    00:09:57.000 : Running From Infamy
    00:16:14.000 : Scawldy's Cornucopia
    00:22:43.000 : The Dan D Fine Ladies
    00:28:08.000 : The Girl From Bishop
    00:31:42.000 : What's In A Name
    00:34:09.000 : Johnny The Fox
    00:39:10.000 : Dreaming Of Amy
    00:43:00.000 : The Right Way To Travel
    00:47:38.999 : The Boy
    00:54:21.999 : "Do You Think He's Happy?"
    00:57:15.000 : 1,056 Times
    01:08:42.000 : Pandas & Alligator Boys
    01:14:29.000 : The Breakup
    01:19:54.000 : Seattle - The Vigil
    01:24:38.000 : Done Running
    01:27:57.000 : Re-entry Problems/"Forever"
    01:32:21.000 : End Credits
    Bit rate mode : VBR

    Скриншоты 720p Release

    -

    Релиз подготовлен для просмотра на Apple TV, iPad, iPhone, iPod Touch.
    Для просмотра данного релиза на компьютере с ОС Windows рекомендуется использовать VLC media player
    Скачать .torrent

    Скачать торрент-файл бесплатно и на максимальной скорости!

    Как скачивать? · Что такое торрент? · Рейтинг и ограничения

    !ВНИМАНИЕ!
    Сайт не распространяет и не хранит электронные версии произведений, а занимается лишь лишь предоставлением доступа к создаваемому пользователями каталогу ссылок на торрент-файлы, которые содержат только списки хеш-сумм, убедительная просьба с жалобами обращаться напрямую к пользователю. Файлы для обмена на трекере предоставлены пользователями сайта, и администрация не несёт ответственности за их содержание. Просьба не заливать файлы, защищенные авторскими правами, а также файлы нелегального содержания!


    _________________
    [Профиль] [ЛС]
    Показать сообщения:    
    Ответить на тему

    Текущее время: Сегодня, в 18:23

    Часовой пояс: GMT + 2



    Вы не можете начинать темы
    Вы не можете отвечать на сообщения
    Вы не можете редактировать свои сообщения
    Вы не можете удалять свои сообщения
    Вы не можете голосовать в опросах
    Вы не можете прикреплять файлы к сообщениям
    Вы не можете скачивать файлы