BitTorrentTracker PerecTracker.org
BitTorrentTracker PerecTracker.org
    
Регистрация  ·  Вход
 
 · 
Забыли пароль?

  • Похищение Зака Баттерфилда / Последние дни Эйприл / The Abduction of Zack Butterfield / Last Days of April (Рик Ланкастер / Rick Lancaster) [2011, США, криминал, драма, WEB-DLRip-AVC] + Sub Rus + Original Eng

    Ответить на тему
     
    Автор Сообщение

    Light

    Создавать темы 02-Авг-2015 16:46

           

    [Цитировать]

    Похищение Зака Баттерфилда / Последние дни Эйприл / The Abduction of Zack Butterfield / Last Days of April
    Страна: США
    Жанр: криминал, драма
    Год выпуска: 2011
    Продолжительность: 01:26:49
    Перевод: Субтитры
    Cубтитры: русские
    Оригинальная аудиодорожка: английский
    Режиссер: Рик Ланкастер / Rick Lancaster
    В ролях: Тиджей Планкетт, Брэтт Хелшем, Лиза Ганн, Селин ду Тертре, Доменико Д’Ипполито, Энтони Амес, Коннор Бакли
    Описание: 26-летняя Эйприл влюбляется в 15-летнего паренька, похищает его и привозит в свой дом. Удерживая подростка угрозой убийства, она вступает с ним в интимную связь.
    Сэмпл: http://sendfile.su/1142456
    Качество видео: WEB-DLRip-AVC
    Формат видео: MP4
    Видео: MPEG4 Video (H264) 1280x720 23.976fps 2523kbps [V: h264 main L3.1, yuv420p, 1280x720, 2523 kb/s]
    Аудио: AAC 48000Hz 6ch 317kbps (aac lc, 48000 Hz, 5.1, 317 kb/s)]
    Формат субтитров: softsub (SRT)
    Внимание! Ненормативная лексика.

    MediaInfo

    General
    Complete name : C:\Users\Desktop\The Abduction of Zack Butterfield\The Abduction of Zack Butterfield.mp4
    Format : MPEG-4
    Format profile : Base Media
    Codec ID : isom
    File size : 1.72 GiB
    Duration : 1h 26mn
    Overall bit rate mode : Variable
    Overall bit rate : 2 843 Kbps
    Encoded date : UTC 2014-08-21 16:39:06
    Tagged date : UTC 2014-08-21 16:39:06
    Video
    ID : 1
    Format : AVC
    Format/Info : Advanced Video Codec
    Format profile : Main@L3.1
    Format settings, CABAC : Yes
    Format settings, ReFrames : 4 frames
    Codec ID : avc1
    Codec ID/Info : Advanced Video Coding
    Duration : 1h 26mn
    Bit rate : 2 523 Kbps
    Maximum bit rate : 16.9 Mbps
    Width : 1 280 pixels
    Height : 720 pixels
    Display aspect ratio : 16:9
    Frame rate mode : Constant
    Frame rate : 23.976 fps
    Color space : YUV
    Chroma subsampling : 4:2:0
    Bit depth : 8 bits
    Scan type : Progressive
    Bits/(Pixel*Frame) : 0.114
    Stream size : 1.53 GiB (89%)
    Writing library : Zencoder Video Encoding System
    Encoded date : UTC 2014-08-21 15:54:15
    Tagged date : UTC 2014-08-21 16:39:10
    Audio
    ID : 2
    Format : AAC
    Format/Info : Advanced Audio Codec
    Format profile : LC
    Codec ID : 40
    Duration : 1h 26mn
    Bit rate mode : Variable
    Bit rate : 317 Kbps
    Maximum bit rate : 335 Kbps
    Channel(s) : 2 channels
    Channel(s)_Original : 6 channels
    Channel positions : Front: L C R, Side: L R, LFE
    Sampling rate : 48.0 KHz
    Compression mode : Lossy
    Stream size : 197 MiB (11%)
    Title : /data/tmp/zencoder/output/e/b2/ac/34/307246808/500/20140821155200/transcode/encoded.audio.aac - Imported with GPAC 0.4.6-DEV-revexported
    Encoded date : UTC 2014-08-21 16:39:09
    Tagged date : UTC 2014-08-21 16:39:10

    Скриншот c названием фильма

    Скриншоты

    Фрагмент субтитров

    1
    00:02:04,727 --> 00:02:06,227
    Давай, Зак!
    2
    00:02:15,430 --> 00:02:18,110
    Вот. Может перестанешь мне надоедать.
    3
    00:02:18,490 --> 00:02:20,000
    Сьерра Драйверс!
    4
    00:02:20,620 --> 00:02:22,830
    Спасибо, мам!
    5
    00:02:23,220 --> 00:02:25,820
    Я так долго их искал!
    Ты лучшая мама в мире.
    6
    00:02:26,070 --> 00:02:28,370
    - Только не надевай их на игре в футбол.
    - Угу.
    7
    00:02:51,448 --> 00:02:54,830
    Я не могу.
    Я обещал Эмили сходить в кино.
    8
    00:02:55,210 --> 00:02:57,120
    Господи, ты такой подкаблучник!
    9
    00:02:57,270 --> 00:02:59,080
    Да пошел ты, Крис!
    Я не такой.
    10
    00:02:59,330 --> 00:03:00,930
    - Это смешно.
    - Ага.
    11
    00:03:01,074 --> 00:03:03,660
    Типа, ты не самый конченый
    подкаблучник на ёбаной Земле.
    12
    00:03:03,770 --> 00:03:05,470
    Просто я не первобытный человек,
    как ты.
    13
    00:03:05,830 --> 00:03:07,530
    Я могу дружить с девчонками.
    14
    00:03:07,780 --> 00:03:10,250
    Подкаблучник ты!
    Все это знают.
    15
    00:03:10,500 --> 00:03:12,000
    Забей.
    16
    00:03:12,370 --> 00:03:14,940
    Чувак, в последнее время,
    о чем бы я не попросил,
    17
    00:03:15,190 --> 00:03:18,130
    - всегда слышу: Эмили то, Эмили сё...
    - Да хватит.
    18
    00:03:18,380 --> 00:03:20,900
    Ты просто ненавидишь девчонок.
    Может, даже до сих пор
    19
    00:03:21,025 --> 00:03:23,050
    - пугаешь их дохлыми жабами?
    - Я ненавижу девчонок?
    20
    00:03:23,300 --> 00:03:25,880
    Нет, наоборот я их люблю!
    21
    00:03:26,380 --> 00:03:28,480
    Мне просто не нравится,
    когда они равняют себя с парнями.
    Скачать .torrent

    Скачать торрент-файл бесплатно и на максимальной скорости!

    Как скачивать? · Что такое торрент? · Рейтинг и ограничения

    !ВНИМАНИЕ!
    Сайт не распространяет и не хранит электронные версии произведений, а занимается лишь лишь предоставлением доступа к создаваемому пользователями каталогу ссылок на торрент-файлы, которые содержат только списки хеш-сумм, убедительная просьба с жалобами обращаться напрямую к пользователю. Файлы для обмена на трекере предоставлены пользователями сайта, и администрация не несёт ответственности за их содержание. Просьба не заливать файлы, защищенные авторскими правами, а также файлы нелегального содержания!


    _________________
    [Профиль] [ЛС]
    Показать сообщения:    
    Ответить на тему

    Текущее время: Сегодня, в 07:05

    Часовой пояс: GMT + 2



    Вы не можете начинать темы
    Вы не можете отвечать на сообщения
    Вы не можете редактировать свои сообщения
    Вы не можете удалять свои сообщения
    Вы не можете голосовать в опросах
    Вы не можете прикреплять файлы к сообщениям
    Вы не можете скачивать файлы