BitTorrentTracker PerecTracker.org
BitTorrentTracker PerecTracker.org
    
Регистрация  ·  Вход
 
 · 
Забыли пароль?

  • Лилу / Lily / Lilou\'s Adventure / Lilou no bouken / Riruu no boken (Идзуру Кумасака / Izuru Kumasaka) [2012, Япония, драма, DVB-AVC] MVO (Kino Polska)

    Ответить на тему
     
    Автор Сообщение

    Light

    Создавать темы 02-Авг-2015 04:10

           

    [Цитировать]

    Лилу
    Lily-Страна: Япония
    Жанр: драма
    Год выпуска: 2012
    Продолжительность: 01:52:53Перевод: Профессиональный (многоголосый закадровый) по заказу Kino Polska на производственно-технической базе Студии "Акцент"
    Cубтитры: нет
    Режиссер: Идзуру Кумасака / Izuru Kumasaka
    В ролях: Лилу Диабате / Lilou Diabate, Саера Накандакари / Saera Nakandakari, Ламинь Юл Диабате / Lamine Youl Diabate
    Описание: История сюрреалистического путешествия 10-летней девочки по современной Японии. Лилу живет в Окинаве, и когда ее подруга Кокоро вдруг исчезает, она берется расшифровать странные рисунки в ее альбоме, уносясь в мир, где трудно отделить реальность от вымысла…
    Доп. информация: Filmbox Arthouse IPTV
    Номинация на премию Всемирной католической ассоциации по коммуникациям SIGNIS на Hong Kong International Film Festival 2013.

    Качество видео: DVB-AVC
    Формат видео: MKV
    Видео: AVC (H.264), 720x576@1024x576 (16:9), 25 fps, ~901 kbps avg, 0.087 bit/pixel
    Аудио: MPEG Audio 2, 2 ch, 48 kHz, ~128.00 kbps avg

    MediaInfo

    [pre]Общее
    Уникальный идентификатор : 170145145751897668036444891645916726842 (0x8000C35B261AE336B642E672B2F7C63A)
    Полное имя : F:\My Torrents 3\[apreder]Lily(2012)DVB.mkv
    Формат : Matroska
    Версия формата : Version 2
    Размер файла : 848 Мбайт
    Продолжительность : 1 ч. 52 м.
    Общий поток : 1050 Кбит/сек
    Дата кодирования : UTC 2015-08-01 16:13:50
    Программа кодирования : mkvmerge v8.2.0 ('World of Adventure') 64bit
    Библиотека кодирования : libebml v1.3.1 + libmatroska v1.4.2
    Attachements : cover.jpg / cover_small.jpg
    Видео
    Идентификатор : 2
    Формат : AVC
    Формат/Информация : Advanced Video Codec
    Профиль формата : Main@L3
    Параметр CABAC формата : Да
    Параметр ReFrames формата : 3 кадра
    Идентификатор кодека : V_MPEG4/ISO/AVC
    Продолжительность : 1 ч. 52 м.
    Битрейт : 901 Кбит/сек
    Ширина : 720 пикселей
    Высота : 576 пикселей
    Соотношение сторон : 16:9
    Соотношение сторон в оригинале : 16:9
    Режим частоты кадров : Постоянный
    Частота кадров : 25,000 кадров/сек
    Стандарт вещания : Component
    Цветовое пространство : YUV
    Субдискретизация насыщенности : 4:2:0
    Битовая глубина : 8 бит
    Тип развёртки : Чересстрочная
    Порядок развёртки : Верхнее поле первое
    Бит/(Пиксели*Кадры) : 0.087
    Размер потока : 728 Мбайт (86%)
    Default : Да
    Forced : Нет
    colour_range : Limited
    Основные цвета : BT.601 PAL
    Характеристики трансфера : BT.470 System B, BT.470 System G
    Коэффициенты матрицы : BT.601
    Аудио
    Идентификатор : 1
    Формат : MPEG Audio
    Версия формата : Version 1
    Профиль формата : Layer 2
    Идентификатор кодека : A_MPEG/L2
    Идентификатор кодека/Подсказка : MP2
    Продолжительность : 1 ч. 52 м.
    Вид битрейта : Постоянный
    Битрейт : 128 Кбит/сек
    Каналы : 2 канала
    Частота : 48,0 КГц
    Метод сжатия : С потерями
    Задержка видео : -23 мс.
    Размер потока : 103 Мбайт (12%)
    Язык : Russian
    Default : Да
    Forced : Нет

    Скриншот c названием фильма

    Скриншоты

    Резервные скриншоты


    -[2'517]
    Скачать .torrent

    Скачать торрент-файл бесплатно и на максимальной скорости!

    Как скачивать? · Что такое торрент? · Рейтинг и ограничения

    !ВНИМАНИЕ!
    Сайт не распространяет и не хранит электронные версии произведений, а занимается лишь лишь предоставлением доступа к создаваемому пользователями каталогу ссылок на торрент-файлы, которые содержат только списки хеш-сумм, убедительная просьба с жалобами обращаться напрямую к пользователю. Файлы для обмена на трекере предоставлены пользователями сайта, и администрация не несёт ответственности за их содержание. Просьба не заливать файлы, защищенные авторскими правами, а также файлы нелегального содержания!


    _________________
    [Профиль] [ЛС]
    Показать сообщения:    
    Ответить на тему

    Текущее время: Сегодня, в 20:29

    Часовой пояс: GMT + 2



    Вы не можете начинать темы
    Вы не можете отвечать на сообщения
    Вы не можете редактировать свои сообщения
    Вы не можете удалять свои сообщения
    Вы не можете голосовать в опросах
    Вы не можете прикреплять файлы к сообщениям
    Вы не можете скачивать файлы