BitTorrentTracker PerecTracker.org
BitTorrentTracker PerecTracker.org
    
Регистрация  ·  Вход
 
 · 
Забыли пароль?

  • Женщины Третьего Рейха / Откровения – Elles / Malgré-elles (Дени Майеваль / Denis Malleval) [2012, Франция, драма, история, HDTV 1080i] MVO

    Ответить на тему
     
    Автор Сообщение

    Flirldrerve

    Создавать темы 01-Авг-2015 20:58

           

    [Цитировать]

    Женщины Третьего Рейха / Откровения – Elles / Malgré-elles
    Страна: Франция
    Жанр: драма, история
    Год выпуска: 2012
    Продолжительность: 01:31:42
    Перевод: Профессиональный (многоголосый закадровый)
    Cубтитры: нет
    Оригинальная аудиодорожка: нет
    Режиссер: Дени Майеваль / Denis Malleval
    В ролях: Флоре Бонавентура, Луиз Херреро, Мануэла Бидерманн, Мария Деррьен, Матиас Дитрих, Maude Galet-Lalande, Пьер Кивитт, Маша Мериль, Филипп Орель, Marie Schoenbock
    Описание: Фильм рассказывает о женщинах Эльзаса и Мозеля, ставших жертвами третьего рейха. Фашисты использовали их как дешевую рабочую силу, а так же в качестве рожениц, для создания чистой арийской расы.
    Сэмпл: http://multi-up.com/1060910

    Тип релиза: HDTV 1080i
    Контейнер: TS
    Видео: AVC/H.264, PAL, 1920x1080 (16:9), 8205 Кбит/сек, 25.000 fps
    Аудио: русский, MP2, 2ch, 48,0 КГц, 192 Кбит/сек

    MediaInfo

    Общее
    Идентификатор : 1 (0x1)
    Полное имя : C:\Users\User\Desktop\Женщины третьего рейха.ts
    Формат : MPEG-TS
    Размер файла : 5,66 Гбайт
    Продолжительность : 1 ч. 31 м.
    Режим общего битрейта : Переменный
    Общий поток : 8836 Кбит/сек
    Максимальный общий битрейт : 35,5 Мбит/сек
    Видео
    Идентификатор : 4113 (0x1011)
    Идентификатор меню : 1 (0x1)
    Формат : AVC
    Формат/Информация : Advanced Video Codec
    Профиль формата : Main@L4.0
    Параметр CABAC формата : Да
    Параметр ReFrames формата : 3 кадра
    Идентификатор кодека : 27
    Продолжительность : 1 ч. 31 м.
    Вид битрейта : Переменный
    Битрейт : 8205 Кбит/сек
    Максимальный битрейт : 40,0 Мбит/сек
    Ширина : 1920 пикселей
    Высота : 1080 пикселей
    Соотношение сторон : 16:9
    Частота кадров : 25,000 кадров/сек
    Стандарт вещания : Component
    Цветовое пространство : YUV
    Субдискретизация насыщенности : 4:2:0
    Битовая глубина : 8 бит
    Тип развёртки : Чересстрочная
    Порядок развёртки : Верхнее поле первое
    Бит/(Пиксели*Кадры) : 0.158
    Размер потока : 5,26 Гбайт (93%)
    colour_range : Limited
    Аудио
    Идентификатор : 4352 (0x1100)
    Идентификатор меню : 1 (0x1)
    Формат : MPEG Audio
    Версия формата : Version 1
    Профиль формата : Layer 2
    Идентификатор кодека : 4
    Продолжительность : 1 ч. 31 м.
    Вид битрейта : Постоянный
    Битрейт : 192 Кбит/сек
    Каналы : 2 канала
    Частота : 48,0 КГц
    Метод сжатия : С потерями
    Размер потока : 126 Мбайт (2%)
    Язык : Russian

    Скриншот с названием фильма

    Скриншот

    Скачать .torrent

    Скачать торрент-файл бесплатно и на максимальной скорости!

    Как скачивать? · Что такое торрент? · Рейтинг и ограничения

    !ВНИМАНИЕ!
    Сайт не распространяет и не хранит электронные версии произведений, а занимается лишь лишь предоставлением доступа к создаваемому пользователями каталогу ссылок на торрент-файлы, которые содержат только списки хеш-сумм, убедительная просьба с жалобами обращаться напрямую к пользователю. Файлы для обмена на трекере предоставлены пользователями сайта, и администрация не несёт ответственности за их содержание. Просьба не заливать файлы, защищенные авторскими правами, а также файлы нелегального содержания!


    _________________
    [Профиль] [ЛС]
    Показать сообщения:    
    Ответить на тему

    Текущее время: Сегодня, в 08:06

    Часовой пояс: GMT + 2



    Вы не можете начинать темы
    Вы не можете отвечать на сообщения
    Вы не можете редактировать свои сообщения
    Вы не можете удалять свои сообщения
    Вы не можете голосовать в опросах
    Вы не можете прикреплять файлы к сообщениям
    Вы не можете скачивать файлы