BitTorrentTracker PerecTracker.org
BitTorrentTracker PerecTracker.org
    
Регистрация  ·  Вход
 
 · 
Забыли пароль?

  • Сапожник / The Cobbler (Том МакКарти / Tom McCarthy ) [2014, США, Фэнтези, драма, комедия, BDRip, HD (720p)] DUB + Original + sub (rus, eng)

    Ответить на тему
     
    Автор Сообщение

    rechyn

    Создавать темы 01-Авг-2015 16:46

           

    [Цитировать]

    Сапожник / The Cobbler
    «Leave your life in someone else's shoes»
    6.108 / 10 5.90 / 10
    -Год выпуска: 2014
    Страна: США
    Жанр: Фэнтези, драма, комедия
    Продолжительность: 01:38:03
    Перевод: Дублированный (iTunes)
    Внимание: На 2-минутный разговор евреев в начале фильма, сделана вставка с многоголоски.
    Оригинальная аудиодорожка: Есть
    Cубтитры: Русские, Английские
    Режиссёр: Том МакКарти
    Сценарий: Том МакКарти, Пол Садо
    Продюсер: Мэри Джейн Скалски, Майкл Бедерман, Николя Картье
    Оператор: В. Мотт Хапфел III
    Композитор: Джон Дебни, Ник Урата
    Художник: Стивен Х. Картер, Мари Линн Вагнер, Сара Е. МакМиллан
    Монтаж: Том МакАрдл
    В ролях: Адам Сэндлер, Метод Мэн, Эллен Баркин, Мелони Диас, Дэн Стивенс, Фриц Уивер, Юл Васкес, Стив Бушеми, Дастин Хоффман, Линн Коэн
    Мировая премьера: 11 сентября 2014
    Описание: Макс Симкин занимается ремонтом обуви в Нью-Йорке. Он работает в магазине, который передавался его семьей из поколения в поколение. Однажды, разочарованный своей скучной жизнью, Макс натыкается на волшебную реликвию, которая позволяет ему увидеть мир по-новому.-Качество исходника: BDRemux (Кинозал)
    Качество: BDRip
    Тип: HD (720p)
    Контейнер: M4V
    Видео: H.264, 1280x688, 1.85:1, 3 500 Kbps, 23.976 fps
    Аудио 1: Русский/Дублированный (iTunes), AAC / 2.0 / 154 Kbps / 48.0 KHz
    Аудио 2: Английский/Оригинальная дорожка , AAC / 2.0 / 157 Kbps / 48.0 KHz
    Аудио 3: Русский/Дублированный (iTunes), AC-3 / 5.1 / 384 Kbps / 48.0 KHz
    Аудио 4: Английский/Оригинальная дорожка , AC-3 / 5.1 / 640 Kbps / 48.0 KHz
    Субтитры 1: Русские полные
    Субтитры 2: Английские полные
    -

    iTunes Meta Tags

    Sort Name: Cobbler
    XID: Apple:vendor_id:2014-801924
    contentID: 967562438
    Copyright: © 2014 COBBLER NEVADA, LLC. ALL RIGHTS RESERVED.
    Screenwriters: Томас МакКарти, Пол Садо
    Producers: Мэри Джейн Скалски, Майкл Бедерман, Николя Картье
    Director: Томас МакКарти
    Cast: Адам Сэндлер, Метод Мэн, Эллен Баркин, Мелони Диас, Дэн Стивенс, Фриц Уивер, Юл Васкес, Стив Бушеми, Дастин Хоффман, Линн Коэн
    Studio: RIJ Entertainment
    Rating: 10
    Long Description: Макс Симкин занимается ремонтом обуви в Нью-Йорке. Он работает в магазине, который передавался его семьей из поколения в поколение. Однажды, разочарованный своей скучной жизнью, Макс натыкается на волшебную реликвию, которая позволяет ему увидеть мир по-новому.
    Description: Макс Симкин занимается ремонтом обуви в Нью-Йорке. Он работает в магазине, который передавался его семьей из поколения в поколение. Однажды, разочарованный своей скучной жизнью, Макс натыкается на волшебную реликвию, которая позволяет ему увидеть мир по-новому.
    Release Date: 2014-09-11T08:00:00Z
    Genre: Comedy
    Artist: Tom McCarthy
    Name: The Cobbler

    MediaInfo

    General
    Complete name                            : /Users/imac/HandBrake/The Cobbler (720p HD).m4v
    Format                                   : MPEG-4
    Codec ID                                 : M4V
    File size                                : 3.32 GiB
    Duration                                 : 1h 38mn
    Overall bit rate mode                    : Variable
    Overall bit rate                         : 4 841 Kbps
    Movie name                               : The Cobbler
    Performer                                : Tom McCarthy
    Genre                                    : Comedy
    Recorded date                            : UTC 2014-09-11 08:00:00
    Encoded date                             : UTC 2015-08-01 09:49:43
    Tagged date                              : UTC 2015-08-01 09:51:18
    Copyright                                : © 2014 COBBLER NEVADA, LLC. ALL RIGHTS RESERVED.
    Cover                                    : Yes
    sonm                                     : Cobbler
    desc                                     : Макс Симкин занимается ремонтом обуви в Нью-Йорке. Он работает в магазине, который передавался его семьей из поколения в поколение. Однажды, разочарованный своей скучной жизнью, Макс натыкается на волшебную реликвию, которая позволяет ему увидеть мир по-новому.
    ldes                                     : Макс Симкин занимается ремонтом обуви в Нью-Йорке. Он работает в магазине, который передавался его семьей из поколения в поколение. Однажды, разочарованный своей скучной жизнью, Макс натыкается на волшебную реликвию, которая позволяет ему увидеть мир по-новому.
    hdvd                                     : 1
    stik                                     : 9
    rtng                                     : 0
    cnID                                     : 967562438
    xid                                      : Apple:vendor_id:2014-801924
    iTunEXTC                                 : mpaa|PG-13|300|
    iTunMOVI                                 : <?xml version=\"1.0\" encoding=\"UTF-8\"?> / <!DOCTYPE plist PUBLIC \"-//Apple//DTD PLIST 1.0//EN\" \"http://anonym.to/?http://www.apple.com/DTDs/PropertyList-1.0.dtd\"> / <plist version=\"1.0\"> / <dict> /  <key>cast</key> /  <array> /   <dict> /    <key>name</key> /    <string>Адам Сэндлер</string> /   </dict> /   <dict> /    <key>name</key> /    <string>Метод Мэн</string> /   </dict> /   <dict> /    <key>name</key> /    <string>Эллен Баркин</string> /   </dict> /   <dict> /    <key>name</key> /    <string>Мелони Диас</string> /   </dict> /   <dict> /    <key>name</key> /    <string>Дэн Стивенс</string> /   </dict> /   <dict> /    <key>name</key> /    <string>Фриц Уивер</string> /   </dict> /   <dict> /    <key>name</key> /    <string>Юл Васкес</string> /   </dict> /   <dict> /    <key>name</key> /    <string>Стив Бушеми</string> /   </dict> /   <dict> /    <key>name</key> /    <string>Дастин Хоффман</string> /   </dict> /   <dict> /    <key>name</key> /    <string>Линн Коэн</string> /   </dict> /  </array> /  <key>directors</key> /  <array> /   <dict> /    <key>name</key> /    <string>Томас МакКарти</string> /   </dict> /  </array> /  <key>producers</key> /  <array> /   <dict> /    <key>name</key> /    <string>Мэри Джейн Скалски</string> /   </dict> /   <dict> /    <key>name</key> /    <string>Майкл Бедерман</string> /   </dict> /   <dict> /    <key>name</key> /    <string>Николя Картье</string> /   </dict> /  </array> /  <key>screenwriters</key> /  <array> /   <dict> /    <key>name</key> /    <string>Томас МакКарти</string> /   </dict> /   <dict> /    <key>name</key> /    <string>Пол Садо</string> /   </dict> /  </array> /  <key>studio</key> /  <string>RIJ Entertainment</string> / </dict> / </plist>
    Video #1
    ID                                       : 1
    Format                                   : AVC
    Format/Info                              : Advanced Video Codec
    Format profile                           : High@L3.1
    Format settings, CABAC                   : No
    Format settings, ReFrames                : 3 frames
    Codec ID                                 : avc1
    Codec ID/Info                            : Advanced Video Coding
    Duration                                 : 1h 38mn
    Bit rate mode                            : Variable
    Bit rate                                 : 3 500 Kbps
    Width                                    : 1 280 pixels
    Height                                   : 688 pixels
    Display aspect ratio                     : 1.85:1
    Frame rate mode                          : Variable
    Frame rate                               : 23.976 fps
    Minimum frame rate                       : 23.810 fps
    Maximum frame rate                       : 24.272 fps
    Color space                              : YUV
    Chroma subsampling                       : 4:2:0
    Bit depth                                : 8 bits
    Scan type                                : Progressive
    Bits/(Pixel*Frame)                       : 0.166
    Stream size                              : 2.39 GiB (72%)
    Writing library                          : x264 core 142 r2479 dd79a61
    Encoding settings                        : cabac=0 / ref=3 / deblock=1:-3:-3 / analyse=0x3:0x113 / me=umh / subme=9 / psy=1 / psy_rd=1.00:0.15 / mixed_ref=1 / me_range=32 / chroma_me=1 / trellis=0 / 8x8dct=1 / cqm=0 / deadzone=21,11 / fast_pskip=0 / chroma_qp_offset=-2 / threads=36 / lookahead_threads=3 / sliced_threads=0 / nr=0 / decimate=0 / interlaced=0 / bluray_compat=0 / constrained_intra=0 / bframes=3 / b_pyramid=0 / b_adapt=2 / b_bias=0 / direct=1 / weightb=0 / open_gop=0 / weightp=0 / keyint=240 / keyint_min=24 / scenecut=40 / intra_refresh=0 / rc_lookahead=40 / rc=2pass / mbtree=1 / bitrate=3500 / ratetol=1.0 / qcomp=0.65 / qpmin=0 / qpmax=69 / qpstep=4 / cplxblur=20.0 / qblur=0.5 / vbv_maxrate=9500 / vbv_bufsize=9500 / nal_hrd=none / filler=0 / ip_ratio=1.40 / aq=1:1.10
    Language                                 : English
    Encoded date                             : UTC 2015-08-01 09:49:43
    Tagged date                              : UTC 2015-08-01 09:49:53
    Color primaries                          : BT.709-5, BT.1361, IEC 61966-2-4, SMPTE RP177
    Transfer characteristics                 : BT.709-5, BT.1361
    Matrix coefficients                      : BT.709-5, BT.1361, IEC 61966-2-4 709, SMPTE RP177
    Video #2
    ID                                       : 9
    Format                                   : JPEG
    Codec ID                                 : jpeg
    Duration                                 : 1h 38mn
    Bit rate mode                            : Variable
    Bit rate                                 : 793 bps
    Width                                    : 640 pixels
    Height                                   : 344 pixels
    Display aspect ratio                     : 1.85:1
    Frame rate mode                          : Variable
    Frame rate                               : 0.002 fps
    Minimum frame rate                       : 0.001 fps
    Maximum frame rate                       : 0.004 fps
    Color space                              : YUV
    Chroma subsampling                       : 4:2:0
    Bit depth                                : 8 bits
    Compression mode                         : Lossy
    Bits/(Pixel*Frame)                       : 1.801
    Stream size                              : 581 KiB (0%)
    Language                                 : English
    Encoded date                             : UTC 2015-08-01 09:49:58
    Tagged date                              : UTC 2015-08-01 09:49:58
    Audio #1
    ID                                       : 2
    Format                                   : AAC
    Format/Info                              : Advanced Audio Codec
    Format profile                           : LC
    Codec ID                                 : 40
    Duration                                 : 1h 38mn
    Bit rate mode                            : Variable
    Bit rate                                 : 154 Kbps
    Maximum bit rate                         : 234 Kbps
    Channel(s)                               : 2 channels
    Channel positions                        : Front: L R
    Sampling rate                            : 48.0 KHz
    Compression mode                         : Lossy
    Stream size                              : 108 MiB (3%)
    Language                                 : Russian
    Encoded date                             : UTC 2015-08-01 09:49:43
    Tagged date                              : UTC 2015-08-01 09:49:55
    Audio #2
    ID                                       : 3
    Format                                   : AAC
    Format/Info                              : Advanced Audio Codec
    Format profile                           : LC
    Codec ID                                 : 40
    Duration                                 : 1h 38mn
    Bit rate mode                            : Variable
    Bit rate                                 : 157 Kbps
    Maximum bit rate                         : 246 Kbps
    Channel(s)                               : 2 channels
    Channel positions                        : Front: L R
    Sampling rate                            : 48.0 KHz
    Compression mode                         : Lossy
    Stream size                              : 110 MiB (3%)
    Language                                 : English
    Encoded date                             : UTC 2015-08-01 09:49:43
    Tagged date                              : UTC 2015-08-01 09:49:55
    Audio #3
    ID                                       : 4
    Format                                   : AC-3
    Format/Info                              : Audio Coding 3
    Mode extension                           : CM (complete main)
    Format settings, Endianness              : Big
    Codec ID                                 : ac-3
    Duration                                 : 1h 38mn
    Bit rate mode                            : Constant
    Bit rate                                 : 384 Kbps
    Channel(s)                               : 6 channels
    Channel positions                        : Front: L C R, Side: L R, LFE
    Sampling rate                            : 48.0 KHz
    Bit depth                                : 16 bits
    Compression mode                         : Lossy
    Stream size                              : 269 MiB (8%)
    Language                                 : Russian
    Encoded date                             : UTC 2015-08-01 09:49:43
    Tagged date                              : UTC 2015-08-01 09:49:48
    Audio #4
    ID                                       : 5
    Format                                   : AC-3
    Format/Info                              : Audio Coding 3
    Mode extension                           : CM (complete main)
    Format settings, Endianness              : Big
    Codec ID                                 : ac-3
    Duration                                 : 1h 38mn
    Bit rate mode                            : Constant
    Bit rate                                 : 640 Kbps
    Channel(s)                               : 6 channels
    Channel positions                        : Front: L C R, Side: L R, LFE
    Sampling rate                            : 48.0 KHz
    Bit depth                                : 16 bits
    Compression mode                         : Lossy
    Stream size                              : 449 MiB (13%)
    Language                                 : English
    Encoded date                             : UTC 2015-08-01 09:49:43
    Tagged date                              : UTC 2015-08-01 09:49:48
    Text #1
    ID                                       : 6
    Format                                   : Timed text
    Muxing mode                              : sbtl
    Codec ID                                 : tx3g
    Duration                                 : 1h 33mn
    Bit rate mode                            : Variable
    Bit rate                                 : 89 bps
    Stream size                              : 61.1 KiB (0%)
    Language                                 : Russian
    Encoded date                             : UTC 2015-08-01 09:49:43
    Tagged date                              : UTC 2015-08-01 09:49:43
    Text #2
    ID                                       : 7
    Format                                   : Timed text
    Muxing mode                              : sbtl
    Codec ID                                 : tx3g
    Duration                                 : 1h 33mn
    Bit rate mode                            : Variable
    Bit rate                                 : 74 bps
    Stream size                              : 50.1 KiB (0%)
    Language                                 : English
    Encoded date                             : UTC 2015-08-01 09:49:43
    Tagged date                              : UTC 2015-08-01 09:49:43
    Text #3
    ID                                       : 8
    Format                                   : Apple text
    Codec ID                                 : text
    Duration                                 : 1h 38mn
    Bit rate mode                            : Constant
    Bit rate                                 : 0 bps
    Stream size                              : 312 Bytes (0%)
    Language                                 : English
    Encoded date                             : UTC 2015-08-01 09:49:55
    Tagged date                              : UTC 2015-08-01 09:49:55
    Menu
    00:00:00.000                             : 00:00:00.000
    00:08:30.385                             : 00:08:30.301
    00:16:07.133                             : 00:16:07.049
    00:23:34.038                             : 00:23:33.954
    00:39:04.676                             : 00:39:04.592
    00:46:02.051                             : 00:46:01.968
    00:51:59.783                             : 00:51:59.700
    01:00:35.841                             : 01:00:35.757
    01:08:49.125                             : 01:08:49.042
    01:15:42.371                             : 01:15:42.288
    01:26:43.782                             : 01:26:43.698
    01:33:17.509                             : 01:33:17.425

    x264 лог

    x264 [info]: frame I:1172  Avg QP:14.74  size:114829
    x264 [info]: frame P:46759 Avg QP:16.89  size: 34321
    x264 [info]: frame B:93111 Avg QP:18.81  size:  8937
    x264 [info]: consecutive B-frames:  2.5% 13.5% 44.8% 39.2%
    x264 [info]: mb I  I16..4:  8.7% 61.2% 30.2%
    x264 [info]: mb P  I16..4:  2.4%  4.4%  1.6%  P16..4: 48.9% 25.3% 10.0%  0.0%  0.0%    skip: 7.4%
    x264 [info]: mb B  I16..4:  0.2%  0.4%  0.1%  B16..8: 44.0%  8.8%  1.2%  direct: 3.7%  skip:41.6%  L0:41.3% L1:51.7% BI: 7.0%
    x264 [info]: 8x8 transform intra:54.7% inter:42.3%
    x264 [info]: coded y,uvDC,uvAC intra: 71.1% 71.5% 50.2% inter: 22.3% 15.7% 7.7%
    x264 [info]: i16 v,h,dc,p: 63% 15%  7% 15%
    x264 [info]: i8 v,h,dc,ddl,ddr,vr,hd,vl,hu: 10%  8% 10% 11% 14% 14% 13% 11% 10%
    x264 [info]: i4 v,h,dc,ddl,ddr,vr,hd,vl,hu: 11%  9%  6% 11% 16% 15% 13% 11%  8%
    x264 [info]: i8c dc,h,v,p: 55% 16% 20%  9%
    x264 [info]: ref P L0: 69.1% 18.1% 12.9%
    x264 [info]: ref B L0: 77.1% 22.9%
    x264 [info]: kb/s:3497.10

    Скриншоты

    -

    Релиз подготовлен для просмотра на Apple TV, iPad, iPhone, iPod Touch.
    Для просмотра данного релиза на компьютере с ОС Windows рекомендуется использовать VLC media player
    Скачать .torrent

    Скачать торрент-файл бесплатно и на максимальной скорости!

    Как скачивать? · Что такое торрент? · Рейтинг и ограничения

    !ВНИМАНИЕ!
    Сайт не распространяет и не хранит электронные версии произведений, а занимается лишь лишь предоставлением доступа к создаваемому пользователями каталогу ссылок на торрент-файлы, которые содержат только списки хеш-сумм, убедительная просьба с жалобами обращаться напрямую к пользователю. Файлы для обмена на трекере предоставлены пользователями сайта, и администрация не несёт ответственности за их содержание. Просьба не заливать файлы, защищенные авторскими правами, а также файлы нелегального содержания!


    _________________
    [Профиль] [ЛС]
    Показать сообщения:    
    Ответить на тему

    Текущее время: Сегодня, в 11:05

    Часовой пояс: GMT + 2



    Вы не можете начинать темы
    Вы не можете отвечать на сообщения
    Вы не можете редактировать свои сообщения
    Вы не можете удалять свои сообщения
    Вы не можете голосовать в опросах
    Вы не можете прикреплять файлы к сообщениям
    Вы не можете скачивать файлы