BitTorrentTracker PerecTracker.org
BitTorrentTracker PerecTracker.org
    
Регистрация  ·  Вход
 
 · 
Забыли пароль?

  • Северный вариант (Ольгерд Воронцов) [1974, социальная драма, SATRip]

    Ответить на тему
     
    Автор Сообщение

    Light

    Создавать темы 01-Авг-2015 04:10

           

    [Цитировать]

    Северный вариантГод выпуска: 1974.
    Жанр: социальная драма.
    Продолжительность: 01:20:43.
    Режиссер: Ольгерд Воронцов.
    В ролях:
    Олег Анофриев, Евгений Лебедев, Ефим Копелян, Валентина Владимирова, Юрий Пузырёв, Гиви Тохадзе, Марина Поляк, Ольга Селезнёва, Владимир Артёмов, Лев Барашков, Михаил Васьков, Николай Горохов, Александр Липов, Даниил Нетребин, А. Пархоменко, Алексей Инжеватов, Е. Крылова, Василий Басихин.
    Описание:
    В местечке с названием Гиблая Протока бригада нефтяников второй год ведет разведывательные работы. Бригадир Юрий Кожеватов ходит мрачнее тучи: прогноз геофизиков не подтверждается - нефти на северном направлении нет. Жизнь осложняют любовные раздоры: из-за красавицы Алевтины бурильщики подрались, и Кожеватов отправляет ее на большую землю. Начальник разведки Шинкарев едет в Москву с просьбой дать еще время на поиски нефти. Северный вариант под угрозой закрытия.
    Доп. информация:
    Страна: СССР .
    Киностудия: Свердловская киностудия.
    Премьера: 17 декабря 1974 года.
    Автор сценария: Константин Исаев.
    Оператор: Анатолий Лесников.
    Композитор: Леонид Афанасьев.
    Слова песни: Олега Анофриева.
    Художник-постановщик: Виктор Мушников.

    Еще постеры

    Песня "Мечта геолога" из кинофильма

    И что нас занесло в такую глушь среди болот?
    Такой вопрос для нас давно не новость.
    Я ставлю свой транзистор против стоптанных сапог,
    Что вам любой из нас ответит - Совесть!
    Припев:
    Ох, братцы, искупаться в Черном море - красота!
    Да что там море, душ сойдет и ванна...
    Но только у геолога заветная мечта:
    Умыться черной нефтью,
    Умыться теплой нефтью,
    Умыться первой нефтью из фонтана....
    Возможности носить здесь брюки клеш мы лишены,
    Не каждый день рубашки мы меняем
    И тем, кто не причастен, кто глядит со стороны,
    Чертей болотных мы напоминаем.
    Припев:
    Конечно хорошо бы, чтобы нефть текла рекой,
    А с неба сами сыпались алмазы,
    Но только вот до солнца не дотронутся рукой
    И жизни не прожить, дружок, два раза.
    Припев:

    Качество: SATRip
    Формат: AVI
    Видео: 720x544 (1.32:1), 25 fps, XviD build 73 ~2399 kbps avg, 0.25 bit/pixel
    Аудио: 48 kHz, AC3 Dolby Digital, 2/0 (L,R) ch, ~192 kbps

    Отчет MI

    General
    Complete name : Severnyj.variant.1974.XviD.SATRip.fenixclub_1,46.avi
    Format : AVI
    Format/Info : Audio Video Interleave
    File size : 1.47 GiB
    Duration : 1h 20mn
    Overall bit rate : 2 601 Kbps
    Writing application : VirtualDubMod 1.5.10.3 | www.virtualdub-fr.org || (build 2550/release)
    Writing library : VirtualDubMod build 2550/release
    Video
    ID : 0
    Format : MPEG-4 Visual
    Format profile : Advanced Simple@L5
    Format settings, BVOP : 2
    Format settings, QPel : No
    Format settings, GMC : No warppoints
    Format settings, Matrix : Custom
    Codec ID : XVID
    Codec ID/Hint : XviD
    Duration : 1h 20mn
    Bit rate : 2 400 Kbps
    Width : 720 pixels
    Height : 544 pixels
    Display aspect ratio : 4:3
    Frame rate : 25.000 fps
    Color space : YUV
    Chroma subsampling : 4:2:0
    Bit depth : 8 bits
    Scan type : Progressive
    Compression mode : Lossy
    Bits/(Pixel*Frame) : 0.245
    Stream size : 1.35 GiB (92%)
    Writing library : XviD 73
    Audio
    ID : 1
    Format : AC-3
    Format/Info : Audio Coding 3
    Mode extension : CM (complete main)
    Format settings, Endianness : Big
    Codec ID : 2000
    Duration : 1h 20mn
    Bit rate mode : Constant
    Bit rate : 192 Kbps
    Channel(s) : 2 channels
    Channel positions : Front: L R
    Sampling rate : 48.0 KHz
    Compression mode : Lossy
    Stream size : 111 MiB (7%)
    Alignment : Split accross interleaves
    Interleave, duration : 40 ms (1.00 video frame)
    Interleave, preload duratio : 500 ms.
    Скриншоты

    Альтернативный хост

    Скачать .torrent

    Скачать торрент-файл бесплатно и на максимальной скорости!

    Как скачивать? · Что такое торрент? · Рейтинг и ограничения

    !ВНИМАНИЕ!
    Сайт не распространяет и не хранит электронные версии произведений, а занимается лишь лишь предоставлением доступа к создаваемому пользователями каталогу ссылок на торрент-файлы, которые содержат только списки хеш-сумм, убедительная просьба с жалобами обращаться напрямую к пользователю. Файлы для обмена на трекере предоставлены пользователями сайта, и администрация не несёт ответственности за их содержание. Просьба не заливать файлы, защищенные авторскими правами, а также файлы нелегального содержания!


    _________________
    [Профиль] [ЛС]
    Показать сообщения:    
    Ответить на тему

    Текущее время: Сегодня, в 10:59

    Часовой пояс: GMT + 2



    Вы не можете начинать темы
    Вы не можете отвечать на сообщения
    Вы не можете редактировать свои сообщения
    Вы не можете удалять свои сообщения
    Вы не можете голосовать в опросах
    Вы не можете прикреплять файлы к сообщениям
    Вы не можете скачивать файлы