BitTorrentTracker PerecTracker.org
BitTorrentTracker PerecTracker.org
    
Регистрация  ·  Вход
 
 · 
Забыли пароль?

  • Фанни / Fanny (Даниель Отой / Daniel Auteuil) [2013, Франция, драма, комедия, HDRip-AVC] VO (LetEatBee)

    Ответить на тему
     
    Автор Сообщение

    Light

    Создавать темы 31-Июл-2015 16:22

           

    [Цитировать]

    Фанни / Fanny
    Страна: Франция
    Жанр: драма, комедия
    Год выпуска: 2013
    Продолжительность: 01:41:57
    Перевод: Одноголосый закадровый LetEatBee по оригинальным субтитрам Playball
    Cубтитры: нет
    Режиссер: Даниель Отой / Daniel Auteuil
    В ролях: Даниель Отой / Daniel Auteuil (Сезар), Виктуар Белези / Victoire Bélézy (Фанни), Жан-Пьер Дарруссен / Jean-Pierre Darroussin (Оноре Панис), Рафаэль Персонас / Raphaël Personnaz (Мариус), Мари-Анн Шазель / Marie-Anne Chazel (Онорина), Ариан Аскарид / Ariane Ascaride (Клодина) и др.
    Описание: Второй фильм «Марсельской трилогии» Марселя Паньоля. Герои предшествующей картины «Мариус» — влюбленные Фанни и Мариус. По воле судьбы они вынуждены расстаться. Мариус отплывает на корабле, а Фанни понимает, что беременна от него. Не желая порочить честь семьи, под нажимом матери, она выходит замуж за богатого вдовца Паниса, который старше девушки на три десятка лет. Панис не имеет семьи и детей и просит Фанни не говорить никому, что ее ребенок не от него. Старик даже рад, что его молодая невеста беременна, и очень хочет воспитать малыша, как собственного сына и наследника.
    Сэмпл: https://yadi.sk/i/xJ1ymu5fiBTtT
    Качество видео: HDRip-AVC
    Формат видео: MKV
    Видео: AVC, 1280:696, 24.000 fps, 2 200 Kbps
    Аудио: AC-3, 48.0 KHz, 192 Kbps

    MediaInfo

    General
    Unique ID : 240267090045757892773924587307782455865 (0xB4C1C2225F7F78CEBEEB31587FA94239)
    Complete name : S:\VIDEO\Fanny.2013\Fanny.2013_RUS.mkv
    Format : Matroska
    Format version : Version 4 / Version 2
    File size : 1.70 GiB
    Duration : 1h 41mn
    Overall bit rate : 2 392 Kbps
    Encoded date : UTC 2013-11-11 08:40:11
    Writing application : mkvmerge v8.2.0 ('World of Adventure') 64bit
    Writing library : Lavf55.19.100
    DURATION : 01:41:57.152000000
    NUMBER_OF_FRAMES : 191161
    NUMBER_OF_BYTES : 146811648
    _STATISTICS_WRITING_APP : mkvmerge v8.2.0 ('World of Adventure') 64bit
    _STATISTICS_WRITING_DATE_UTC : 2015-07-30 13:32:21
    _STATISTICS_TAGS : BPS DURATION NUMBER_OF_FRAMES NUMBER_OF_BYTES
    Video
    ID : 1
    Format : AVC
    Format/Info : Advanced Video Codec
    Format profile : High@L4.1
    Format settings, CABAC : Yes
    Format settings, ReFrames : 6 frames
    Codec ID : V_MPEG4/ISO/AVC
    Duration : 1h 41mn
    Bit rate : 2 200 Kbps
    Width : 1 280 pixels
    Height : 696 pixels
    Display aspect ratio : 1.85:1
    Frame rate mode : Constant
    Frame rate : 24.000 fps
    Color space : YUV
    Chroma subsampling : 4:2:0
    Bit depth : 8 bits
    Scan type : Progressive
    Bits/(Pixel*Frame) : 0.103
    Stream size : 1.53 GiB (90%)
    Writing library : x264 core 138 r2345
    Encoding settings : cabac=1 / ref=6 / deblock=1:0:0 / analyse=0x3:0x133 / me=umh / subme=8 / psy=1 / psy_rd=1.00:0.00 / mixed_ref=1 / me_range=16 / chroma_me=1 / trellis=0 / 8x8dct=1 / cqm=0 / deadzone=21,11 / fast_pskip=0 / chroma_qp_offset=-2 / threads=3 / lookahead_threads=1 / sliced_threads=0 / nr=0 / decimate=1 / interlaced=0 / bluray_compat=0 / constrained_intra=0 / bframes=6 / b_pyramid=2 / b_adapt=2 / b_bias=0 / direct=3 / weightb=1 / open_gop=0 / weightp=2 / keyint=240 / keyint_min=24 / scenecut=40 / intra_refresh=0 / rc_lookahead=50 / rc=2pass / mbtree=1 / bitrate=2200 / ratetol=1.0 / qcomp=0.60 / qpmin=10 / qpmax=51 / qpstep=4 / cplxblur=20.0 / qblur=0.5 / vbv_maxrate=24000 / vbv_bufsize=24000 / nal_hrd=none / ip_ratio=1.40 / aq=1:1.00
    Language : English
    Default : Yes
    Forced : No
    DURATION : 01:41:57.042000000
    NUMBER_OF_FRAMES : 146809
    NUMBER_OF_BYTES : 1680863391
    _STATISTICS_WRITING_APP : mkvmerge v8.2.0 ('World of Adventure') 64bit
    _STATISTICS_WRITING_DATE_UTC : 2015-07-30 13:32:21
    _STATISTICS_TAGS : BPS DURATION NUMBER_OF_FRAMES NUMBER_OF_BYTES
    Audio
    ID : 2
    Format : E-AC-3
    Format/Info : Audio Coding 3
    Format settings, Endianness : Big
    Codec ID : A_EAC3
    Duration : 1h 41mn
    Bit rate mode : Constant
    Bit rate : 192 Kbps
    Channel(s) : 2 channels
    Channel positions : Front: L R
    Sampling rate : 48.0 KHz
    Compression mode : Lossy
    Stream size : 140 MiB (8%)
    Default : Yes
    Forced : No

    Скриншот c названием фильма

    Скриншоты

    Скачать .torrent

    Скачать торрент-файл бесплатно и на максимальной скорости!

    Как скачивать? · Что такое торрент? · Рейтинг и ограничения

    !ВНИМАНИЕ!
    Сайт не распространяет и не хранит электронные версии произведений, а занимается лишь лишь предоставлением доступа к создаваемому пользователями каталогу ссылок на торрент-файлы, которые содержат только списки хеш-сумм, убедительная просьба с жалобами обращаться напрямую к пользователю. Файлы для обмена на трекере предоставлены пользователями сайта, и администрация не несёт ответственности за их содержание. Просьба не заливать файлы, защищенные авторскими правами, а также файлы нелегального содержания!


    _________________
    [Профиль] [ЛС]
    Показать сообщения:    
    Ответить на тему

    Текущее время: Сегодня, в 13:45

    Часовой пояс: GMT + 2



    Вы не можете начинать темы
    Вы не можете отвечать на сообщения
    Вы не можете редактировать свои сообщения
    Вы не можете удалять свои сообщения
    Вы не можете голосовать в опросах
    Вы не можете прикреплять файлы к сообщениям
    Вы не можете скачивать файлы