BitTorrentTracker PerecTracker.org
BitTorrentTracker PerecTracker.org
    
Регистрация  ·  Вход
 
 · 
Забыли пароль?

  • Сталь и кружево / Steel And Lace (Эрнест Д. Фарино / Ernest D. Farino) [1991, США, боевик, фантастика, ужасы, HDTV 1080i] DVO (НТВ+) + Original Eng

    Ответить на тему
     
    Автор Сообщение

    Flirldrerve

    Создавать темы 31-Июл-2015 12:10

           

    [Цитировать]

    Сталь и кружево / Steel And Lace-Страна: США
    Студия: Cinema Home Video
    Жанр: боевик, фантастика, ужасы
    Год выпуска: 1991
    Продолжительность: 01:29:42-Перевод: Профессиональный (двухголосый закадровый) НТВ+
    Cубтитры: нет
    Оригинальная аудиодорожка: английский-Режиссер: Эрнест Д. Фарино / Ernest D. Farino
    В ролях: Клер Рен, Брюс Дэвисон, Стэйси Хайдук, Дэвид Нотон, Майкл Серверис, Скотт Беркхоулдер, Пол Либер, Брайан Бэкер, Джон Дж. Йорк, Беверли Микинс, Ник Тэйт, Дэвид Л. Ландер, Джон ДеМита, Бренда Суонсон, Дэйв Эдисон, Дж. Синтия Брукс, Хэнк Гаррет, Уильям Принс, Мэри Бучер, Фрэнк Пеше- | Релиз: -Описание: Жестокий фантастический триллер, рассказывающий об изнасиловании пианистки, исполнительницы классики, после её дебюта в Лос-Анджелесе. Её брат, бывший сотрудник НАСА, мстит обидчикам. Сталь и кружево - две вещи несовместные. Как гений и злодейство. Но если их употреблять не одновременно, а последовательно, то можно достичь желаемого эффекта: скажем, одного мужчинку даже слабая дамочка без труда проткнет железным штырьком-сверлом, а другого - придушит кружевным шнурочком. Героиню же этого фильма слабой не назовешь: она скорее подобна знаменитому Терминатору, безжалостно уничтожающему своих противников...-Семпл: http://sendfile.su/1141813-Тип релиза: HDTV 1080i
    Контейнер: TS
    Видео: 1920x1080i (16:9), 25.000 fps, AVC, ~6070 Kbps, 0.117 bits/pixel
    Аудио 1: Русский, 48.0 KHz, MPEG-1 Audio layer 2, 2 ch, 192 kbps
    Аудио 2: English, 48.0 KHz, MPEG-1 Audio layer 2, 2 ch, 192 kbps

    MediaInfo

    GeneralID : 1 (0x1)Complete name : Steel And Lace 1991 MGMHD 1080i.rus.eng.tsFormat : MPEG-TSFile size : 4.26 GiBDuration : 1h 29mnOverall bit rate mode : VariableOverall bit rate : 6 794 KbpsMaximum Overall bit rate : 35.5 Mbps
    VideoID : 4113 (0x1011)Menu ID : 1 (0x1)Format : AVCFormat/Info : Advanced Video CodecFormat profile : Main@L4Format settings, CABAC : YesFormat settings, ReFrames : 4 framesFormat settings, GOP : M=4, N=28Codec ID : 27Duration : 1h 29mnBit rate : 6 070 KbpsWidth : 1 920 pixelsHeight : 1 080 pixelsDisplay aspect ratio : 16:9Frame rate : 25.000 fpsStandard : ComponentColor space : YUVChroma subsampling : 4:2:0Bit depth : 8 bitsScan type : InterlacedScan order : Top Field FirstBits/(Pixel*Frame) : 0.117Stream size : 3.80 GiB (89%)Color range : LimitedColor primaries : BT.709Transfer characteristics : BT.709Matrix coefficients : BT.709
    Audio #1ID : 4352 (0x1100)Menu ID : 1 (0x1)Format : MPEG AudioFormat version : Version 1Format profile : Layer 2Codec ID : 4Duration : 1h 29mnBit rate mode : ConstantBit rate : 192 KbpsChannel(s) : 2 channelsSampling rate : 48.0 KHzCompression mode : LossyStream size : 123 MiB (3%)Language : Russian
    Audio #2ID : 4353 (0x1101)Menu ID : 1 (0x1)Format : MPEG AudioFormat version : Version 1Format profile : Layer 2Codec ID : 4Duration : 1h 29mnBit rate mode : ConstantBit rate : 192 KbpsChannel(s) : 2 channelsSampling rate : 48.0 KHzCompression mode : LossyStream size : 123 MiB (3%)Language : English

    Скриншоты

    Скачать .torrent

    Скачать торрент-файл бесплатно и на максимальной скорости!

    Как скачивать? · Что такое торрент? · Рейтинг и ограничения

    !ВНИМАНИЕ!
    Сайт не распространяет и не хранит электронные версии произведений, а занимается лишь лишь предоставлением доступа к создаваемому пользователями каталогу ссылок на торрент-файлы, которые содержат только списки хеш-сумм, убедительная просьба с жалобами обращаться напрямую к пользователю. Файлы для обмена на трекере предоставлены пользователями сайта, и администрация не несёт ответственности за их содержание. Просьба не заливать файлы, защищенные авторскими правами, а также файлы нелегального содержания!


    _________________
    [Профиль] [ЛС]
    Показать сообщения:    
    Ответить на тему

    Текущее время: Сегодня, в 22:28

    Часовой пояс: GMT + 2



    Вы не можете начинать темы
    Вы не можете отвечать на сообщения
    Вы не можете редактировать свои сообщения
    Вы не можете удалять свои сообщения
    Вы не можете голосовать в опросах
    Вы не можете прикреплять файлы к сообщениям
    Вы не можете скачивать файлы