BitTorrentTracker PerecTracker.org
BitTorrentTracker PerecTracker.org
    
Регистрация  ·  Вход
 
 · 
Забыли пароль?

  • И снова Анискин. 3 серии (Михаил Жаров, Виталий Иванов) [1978, СССР, Детектив, HDTV 1080i]

    Ответить на тему
     
    Автор Сообщение

    Light

    Создавать темы 31-Июл-2015 12:10

           

    [Цитировать]

    И снова Анискин. 3 серии
    Страна: СССР
    Студия: Киностудия им. М.Горького
    Жанр: Детектив
    Год выпуска: 1978
    Продолжительность: 01:05:00 серия
    Перевод: Не требуется
    Cубтитры: нет
    Оригинальная аудиодорожка: русский
    Режиссер: Михаил Жаров, Виталий Иванов
    В ролях: Михаил Жаров, Татьяна Пельтцер, Лидия Смирнова, Роман Ткачук, Юрий Пузырев, Никита Подгорный, Борис Щербаков, Валерий Носик, Александр Белявский, Маргарита Фомина, Лев Борисов, Виктор Борцов, Виктор Володин, Анна Жарова, Вадим Захарченко, Инна Кара-Моско, Люсьена Овчинникова, Валентина Березуцкая, Анастасия Зуева, Варвара Обухова, Валерий Малышев, Семен (Соломон) Соколовский, Станислав Чекан, Вадим Мадянов
    Описание:
    Заключительный фильм трилогии: "Деревенский детектив" (1968), "Анискин и Фантомас" (1974), "И снова Анискин".
    Из сельского музея похищены старинные предметы прикладного искусства. Под подозрение попадают сразу несколько местных жителей. После тщательного расследования обстоятельств дела о музейной краже Анискин пришёл к выводу, что человек, пытавшийся скрыться с похищенными ценностями на речном пароходе, и есть вор...
    Семпл: https://yadi.sk/d/VMeLdkRNiC5fm
    Качество видео: HDTV 1080i
    Формат видео: TS
    Видео: H264; 1920x1080 (16:9); 25.000 fps; ~7 830 Kbps
    Аудио: MPEG Audio Version 1 Layer 2, 48000Hz, 2 channels stereo 192 Кбит/сек

    MediaInfo

    General
    ID : 1 (0x1)
    Complete name : Q:\1_DISK_C\И снова Анискин. 3 серии_1080i_[RUTRACKER.ORG]_by kuzmichm2196\И снова Анискин. 1 Серия.ts
    Format : MPEG-TS
    File size : 3.89 GiB
    Duration : 1h 5mn
    Overall bit rate mode : Variable
    Overall bit rate : 8 441 Kbps
    Video
    ID : 2292 (0x8F4)
    Menu ID : 1 (0x1)
    Format : AVC
    Format/Info : Advanced Video Codec
    Format profile : High@L4.0
    Format settings, CABAC : Yes
    Format settings, ReFrames : 4 frames
    Codec ID : 27
    Duration : 1h 5mn
    Bit rate : 7 830 Kbps
    Width : 1 920 pixels
    Height : 1 080 pixels
    Display aspect ratio : 16:9
    Frame rate : 25.000 fps
    Color space : YUV
    Chroma subsampling : 4:2:0
    Bit depth : 8 bits
    Scan type : MBAFF
    Bits/(Pixel*Frame) : 0.151
    Stream size : 3.60 GiB (93%)
    Audio
    ID : 2295 (0x8F7)
    Menu ID : 1 (0x1)
    Format : MPEG Audio
    Format version : Version 1
    Format profile : Layer 2
    Mode : Joint stereo
    Mode extension : Intensity Stereo + MS Stereo
    Codec ID : 3
    Duration : 1h 5mn
    Bit rate mode : Constant
    Bit rate : 192 Kbps
    Channel(s) : 2 channels
    Sampling rate : 48.0 KHz
    Compression mode : Lossy
    Stream size : 90.5 MiB (2%)
    Language : English

    Скриншоты




    Релиз группы:
    Скачать .torrent

    Скачать торрент-файл бесплатно и на максимальной скорости!

    Как скачивать? · Что такое торрент? · Рейтинг и ограничения

    !ВНИМАНИЕ!
    Сайт не распространяет и не хранит электронные версии произведений, а занимается лишь лишь предоставлением доступа к создаваемому пользователями каталогу ссылок на торрент-файлы, которые содержат только списки хеш-сумм, убедительная просьба с жалобами обращаться напрямую к пользователю. Файлы для обмена на трекере предоставлены пользователями сайта, и администрация не несёт ответственности за их содержание. Просьба не заливать файлы, защищенные авторскими правами, а также файлы нелегального содержания!


    _________________
    [Профиль] [ЛС]
    Показать сообщения:    
    Ответить на тему

    Текущее время: Сегодня, в 09:00

    Часовой пояс: GMT + 2



    Вы не можете начинать темы
    Вы не можете отвечать на сообщения
    Вы не можете редактировать свои сообщения
    Вы не можете удалять свои сообщения
    Вы не можете голосовать в опросах
    Вы не можете прикреплять файлы к сообщениям
    Вы не можете скачивать файлы