BitTorrentTracker PerecTracker.org
BitTorrentTracker PerecTracker.org
    
Регистрация  ·  Вход
 
 · 
Забыли пароль?

  • Искатель воды / The Water Diviner (Рассел Кроу / Russell Crowe ) [2014, Австралия, США, Турция, Драма, военный, BDRip, HD (720p)] DUB + Original + sub (rus, eng)

    Ответить на тему
     
    Автор Сообщение

    rechyn

    Создавать темы 31-Июл-2015 03:46

           

    [Цитировать]

    Искатель воды / The Water Diviner
    «A father's journey in search of his sons»
    6.916 / 10 7.20 / 10
    -Год выпуска: 2014
    Страна: Австралия, США, Турция
    Жанр: Драма, военный
    Продолжительность: 01:51:10
    Перевод: Дублированный (iTunes)
    Оригинальная аудиодорожка: Есть
    Cубтитры: Русские, Английские
    Режиссёр: Рассел Кроу
    Сценарий: Эндрю Найт, Эндрю Анастасиос
    Продюсер: Трой Льюм, Эндрю Мэйсон, Кит Роджер
    Оператор: Эндрю Лесни
    Композитор: Дэвид Хиршфелдер
    Художник: Крис Кеннеди, Джагри Айдин, Робин Элпер Бинголь
    Монтаж: Мэтт Вилла
    В ролях: Рассел Кроу, Ольга Куриленко, Йылмаз Эрдоган, Джай Кортни, Дилан Георгиадес, Джем Йылмаз, Жаклин МакКензи, Райан Корр, Майкл Дорман, Кристофер Соммерс
    Бюджет: $22 500 000
    Сборы в США: $4 196 641
    Сборы в мире: + $11 340 000 = $15 536 641
    Мировая премьера: 11 декабря 2014
    Премьера (РФ): 2 апреля 2015. «Централ Партнершип Classic»
    Описание: Действие фильма разворачивается в 1919 году. Это история об австралийце, который отправляется на полуостров Галлиполи, где во время Первой мировой войны проходила ожесточенная битва, чтобы разыскать тела своих погибших сыновей. И неожиданно для себя он обретает надежду там, где и не мыслил ее найти.-Качество исходника: Blu-Ray (BlueBird)
    Качество: BDRip
    Тип: HD (720p)
    Контейнер: M4V
    Видео: H.264, 1280x544, 2.35:1, 3 500 Kbps, 23.976 fps
    Аудио 1: Русский/Дублированный (iTunes), AAC / 2.0 / 156 Kbps / 48.0 KHz
    Аудио 2: Английский/Оригинальная дорожка , AAC / 2.0 / 157 Kbps / 48.0 KHz
    Аудио 3: Русский/Дублированный (iTunes), AC-3 / 5.1 / 384 Kbps / 48.0 KHz
    Аудио 4: Английский/Оригинальная дорожка , AC-3 / 5.1 / 640 Kbps / 48.0 KHz
    Субтитры 1: Русские полные
    Субтитры 2: Английские полные
    -

    iTunes Meta Tags

    Sort Name: Water Diviner
    XID: Apple:vendor_id:2014-773074
    contentID: 983098248
    Copyright: © 2015 Warner Bros. Entertainment Inc. All Rights Reserved.
    Screenwriters: Эндрю Найт, Эндрю Анастасиос
    Producers: Трой Льюм, Эндрю Мэйсон, Кит Роджер
    Director: Рассел Кроу
    Cast: Рассел Кроу, Джай Кортни, Ольга Куриленко, Изабель Лукас, Дэймон Херриман, Жаклин МакКензи, Джем Йылмаз, Меган Гэй
    Studio: Warner Bros.
    Rating: 11
    Long Description: Действие фильма разворачивается в 1919 году. Это история об австралийце, который отправляется на полуостров Галлиполи, где во время Первой мировой войны проходила ожесточенная битва, чтобы разыскать тела своих погибших сыновей. И неожиданно для себя он обретает надежду там, где и не мыслил ее найти.
    Description: Действие фильма разворачивается в 1919 году. Это история об австралийце, который отправляется на полуостров Галлиполи, где во время Первой мировой войны проходила ожесточенная битва, чтобы разыскать тела своих погибших сыновей. И неожиданно для себя он обретает надежду там, где и не мыслил ее найти.
    Release Date: 2014-12-11T08:00:00Z
    Genre: Drama
    Artist: Russell Crowe
    Name: The Water Diviner

    MediaInfo

    General
    Complete name                            : /Users/imac/HandBrake/The Water Diviner (720p HD).m4v
    Format                                   : MPEG-4
    Codec ID                                 : M4V
    File size                                : 3.75 GiB
    Duration                                 : 1h 51mn
    Overall bit rate mode                    : Variable
    Overall bit rate                         : 4 832 Kbps
    Movie name                               : The Water Diviner
    Performer                                : Russell Crowe
    Genre                                    : Drama
    Recorded date                            : UTC 2014-12-11 08:00:00
    Encoded date                             : UTC 2015-07-30 21:10:36
    Tagged date                              : UTC 2015-07-30 21:13:03
    Copyright                                : © 2015 Warner Bros. Entertainment Inc. All Rights Reserved.
    Cover                                    : Yes
    sonm                                     : Water Diviner
    desc                                     : Действие фильма разворачивается в 1919 году. Это история об австралийце, который отправляется на полуостров Галлиполи, где во время Первой мировой войны проходила ожесточенная битва, чтобы разыскать тела своих погибших сыновей. И неожиданно для себя он обретает надежду там, где и не мыслил ее найти.
    ldes                                     : Действие фильма разворачивается в 1919 году. Это история об австралийце, который отправляется на полуостров Галлиполи, где во время Первой мировой войны проходила ожесточенная битва, чтобы разыскать тела своих погибших сыновей. И неожиданно для себя он обретает надежду там, где и не мыслил ее найти.
    hdvd                                     : 1
    stik                                     : 9
    rtng                                     : 0
    cnID                                     : 983098248
    xid                                      : Apple:vendor_id:2014-773074
    iTunEXTC                                 : mpaa|R|400|
    iTunMOVI                                 : <?xml version=\"1.0\" encoding=\"UTF-8\"?> / <!DOCTYPE plist PUBLIC \"-//Apple//DTD PLIST 1.0//EN\" \"http://anonym.to/?http://www.apple.com/DTDs/PropertyList-1.0.dtd\"> / <plist version=\"1.0\"> / <dict> /  <key>cast</key> /  <array> /   <dict> /    <key>name</key> /    <string>Рассел Кроу</string> /   </dict> /   <dict> /    <key>name</key> /    <string>Джай Кортни</string> /   </dict> /   <dict> /    <key>name</key> /    <string>Ольга Куриленко</string> /   </dict> /   <dict> /    <key>name</key> /    <string>Изабель Лукас</string> /   </dict> /   <dict> /    <key>name</key> /    <string>Дэймон Херриман</string> /   </dict> /   <dict> /    <key>name</key> /    <string>Жаклин МакКензи</string> /   </dict> /   <dict> /    <key>name</key> /    <string>Джем Йылмаз</string> /   </dict> /   <dict> /    <key>name</key> /    <string>Меган Гэй</string> /   </dict> /  </array> /  <key>directors</key> /  <array> /   <dict> /    <key>name</key> /    <string>Рассел Кроу</string> /   </dict> /  </array> /  <key>producers</key> /  <array> /   <dict> /    <key>name</key> /    <string>Трой Льюм</string> /   </dict> /   <dict> /    <key>name</key> /    <string>Эндрю Мэйсон</string> /   </dict> /   <dict> /    <key>name</key> /    <string>Кит Роджер</string> /   </dict> /  </array> /  <key>screenwriters</key> /  <array> /   <dict> /    <key>name</key> /    <string>Эндрю Найт</string> /   </dict> /   <dict> /    <key>name</key> /    <string>Эндрю Анастасиос</string> /   </dict> /  </array> /  <key>studio</key> /  <string>Warner Bros.</string> / </dict> / </plist>
    Video #1
    ID                                       : 1
    Format                                   : AVC
    Format/Info                              : Advanced Video Codec
    Format profile                           : High@L3.1
    Format settings, CABAC                   : No
    Format settings, ReFrames                : 3 frames
    Codec ID                                 : avc1
    Codec ID/Info                            : Advanced Video Coding
    Duration                                 : 1h 51mn
    Bit rate mode                            : Variable
    Bit rate                                 : 3 500 Kbps
    Width                                    : 1 280 pixels
    Height                                   : 544 pixels
    Display aspect ratio                     : 2.35:1
    Frame rate mode                          : Variable
    Frame rate                               : 23.976 fps
    Minimum frame rate                       : 22.327 fps
    Maximum frame rate                       : 23.981 fps
    Color space                              : YUV
    Chroma subsampling                       : 4:2:0
    Bit depth                                : 8 bits
    Scan type                                : Progressive
    Bits/(Pixel*Frame)                       : 0.210
    Stream size                              : 2.71 GiB (72%)
    Writing library                          : x264 core 142 r2479 dd79a61
    Encoding settings                        : cabac=0 / ref=3 / deblock=1:-3:-3 / analyse=0x3:0x113 / me=umh / subme=9 / psy=1 / psy_rd=1.00:0.15 / mixed_ref=1 / me_range=32 / chroma_me=1 / trellis=0 / 8x8dct=1 / cqm=0 / deadzone=21,11 / fast_pskip=0 / chroma_qp_offset=-2 / threads=36 / lookahead_threads=3 / sliced_threads=0 / nr=0 / decimate=0 / interlaced=0 / bluray_compat=0 / constrained_intra=0 / bframes=3 / b_pyramid=0 / b_adapt=2 / b_bias=0 / direct=1 / weightb=0 / open_gop=0 / weightp=0 / keyint=240 / keyint_min=24 / scenecut=40 / intra_refresh=0 / rc_lookahead=40 / rc=2pass / mbtree=1 / bitrate=3500 / ratetol=1.0 / qcomp=0.65 / qpmin=0 / qpmax=69 / qpstep=4 / cplxblur=20.0 / qblur=0.5 / vbv_maxrate=9500 / vbv_bufsize=9500 / nal_hrd=none / filler=0 / ip_ratio=1.40 / aq=1:1.10
    Language                                 : English
    Encoded date                             : UTC 2015-07-30 21:10:37
    Tagged date                              : UTC 2015-07-30 21:10:48
    Color primaries                          : BT.709-5, BT.1361, IEC 61966-2-4, SMPTE RP177
    Transfer characteristics                 : BT.709-5, BT.1361
    Matrix coefficients                      : BT.709-5, BT.1361, IEC 61966-2-4 709, SMPTE RP177
    Video #2
    ID                                       : 9
    Format                                   : JPEG
    Codec ID                                 : jpeg
    Duration                                 : 1h 51mn
    Bit rate mode                            : Variable
    Bit rate                                 : 1 035 bps
    Width                                    : 640 pixels
    Height                                   : 272 pixels
    Display aspect ratio                     : 2.35:1
    Frame rate mode                          : Variable
    Frame rate                               : 0.003 fps
    Minimum frame rate                       : 0.002 fps
    Maximum frame rate                       : 0.005 fps
    Color space                              : YUV
    Chroma subsampling                       : 4:2:0
    Bit depth                                : 8 bits
    Compression mode                         : Lossy
    Bits/(Pixel*Frame)                       : 1.982
    Stream size                              : 843 KiB (0%)
    Language                                 : English
    Encoded date                             : UTC 2015-07-30 21:11:01
    Tagged date                              : UTC 2015-07-30 21:11:01
    Audio #1
    ID                                       : 2
    Format                                   : AAC
    Format/Info                              : Advanced Audio Codec
    Format profile                           : LC
    Codec ID                                 : 40
    Duration                                 : 1h 51mn
    Bit rate mode                            : Variable
    Bit rate                                 : 156 Kbps
    Maximum bit rate                         : 229 Kbps
    Channel(s)                               : 2 channels
    Channel positions                        : Front: L R
    Sampling rate                            : 48.0 KHz
    Compression mode                         : Lossy
    Stream size                              : 124 MiB (3%)
    Language                                 : Russian
    Encoded date                             : UTC 2015-07-30 21:10:36
    Tagged date                              : UTC 2015-07-30 21:10:52
    Audio #2
    ID                                       : 3
    Format                                   : AAC
    Format/Info                              : Advanced Audio Codec
    Format profile                           : LC
    Codec ID                                 : 40
    Duration                                 : 1h 51mn
    Bit rate mode                            : Variable
    Bit rate                                 : 157 Kbps
    Maximum bit rate                         : 229 Kbps
    Channel(s)                               : 2 channels
    Channel positions                        : Front: L R
    Sampling rate                            : 48.0 KHz
    Compression mode                         : Lossy
    Stream size                              : 124 MiB (3%)
    Language                                 : English
    Encoded date                             : UTC 2015-07-30 21:10:37
    Tagged date                              : UTC 2015-07-30 21:10:52
    Audio #3
    ID                                       : 4
    Format                                   : AC-3
    Format/Info                              : Audio Coding 3
    Mode extension                           : CM (complete main)
    Format settings, Endianness              : Big
    Codec ID                                 : ac-3
    Duration                                 : 1h 51mn
    Bit rate mode                            : Constant
    Bit rate                                 : 384 Kbps
    Channel(s)                               : 6 channels
    Channel positions                        : Front: L C R, Side: L R, LFE
    Sampling rate                            : 48.0 KHz
    Bit depth                                : 16 bits
    Compression mode                         : Lossy
    Stream size                              : 305 MiB (8%)
    Language                                 : Russian
    Encoded date                             : UTC 2015-07-30 21:10:37
    Tagged date                              : UTC 2015-07-30 21:10:50
    Audio #4
    ID                                       : 5
    Format                                   : AC-3
    Format/Info                              : Audio Coding 3
    Mode extension                           : CM (complete main)
    Format settings, Endianness              : Big
    Codec ID                                 : ac-3
    Duration                                 : 1h 51mn
    Bit rate mode                            : Constant
    Bit rate                                 : 640 Kbps
    Channel(s)                               : 6 channels
    Channel positions                        : Front: L C R, Side: L R, LFE
    Sampling rate                            : 48.0 KHz
    Bit depth                                : 16 bits
    Compression mode                         : Lossy
    Stream size                              : 509 MiB (13%)
    Language                                 : English
    Encoded date                             : UTC 2015-07-30 21:10:37
    Tagged date                              : UTC 2015-07-30 21:10:50
    Text #1
    ID                                       : 6
    Format                                   : Timed text
    Muxing mode                              : sbtl
    Codec ID                                 : tx3g
    Duration                                 : 1h 45mn
    Bit rate mode                            : Variable
    Bit rate                                 : 71 bps
    Stream size                              : 54.7 KiB (0%)
    Language                                 : Russian
    Encoded date                             : UTC 2015-07-30 21:10:37
    Tagged date                              : UTC 2015-07-30 21:10:39
    Text #2
    ID                                       : 7
    Format                                   : Timed text
    Muxing mode                              : sbtl
    Codec ID                                 : tx3g
    Duration                                 : 1h 49mn
    Bit rate mode                            : Variable
    Bit rate                                 : 35 bps
    Stream size                              : 27.7 KiB (0%)
    Language                                 : English
    Encoded date                             : UTC 2015-07-30 21:10:37
    Tagged date                              : UTC 2015-07-30 21:10:39
    Text #3
    ID                                       : 8
    Format                                   : Apple text
    Codec ID                                 : text
    Duration                                 : 1h 51mn
    Bit rate mode                            : Variable
    Bit rate                                 : 1 bps
    Stream size                              : 471 Bytes (0%)
    Language                                 : English
    Encoded date                             : UTC 2015-07-30 21:10:52
    Tagged date                              : UTC 2015-07-30 21:10:52
    Menu
    00:00:00.000                             : Chapter 1
    00:05:15.565                             : Chapter 2
    00:09:00.331                             : Chapter 3
    00:13:08.329                             : Chapter 4
    00:16:47.798                             : Chapter 5
    00:21:29.121                             : Chapter 6
    00:26:53.278                             : Chapter 7
    00:31:16.333                             : Chapter 8
    00:36:21.554                             : Chapter 9
    00:40:11.993                             : Chapter 10
    00:50:31.737                             : Chapter 11
    00:57:20.062                             : Chapter 12
    01:03:33.560                             : Chapter 13
    01:07:55.905                             : Chapter 14
    01:15:38.409                             : Chapter 15
    01:19:05.366                             : Chapter 16
    01:23:31.548                             : Chapter 17
    01:30:25.337                             : Chapter 18
    01:40:02.496                             : Chapter 19
    01:45:04.173                             : Chapter 20

    x264 лог

    x264 [info]: frame I:2027  Avg QP:16.70  size:110311
    x264 [info]: frame P:58725 Avg QP:18.71  size: 31006
    x264 [info]: frame B:99176 Avg QP:20.39  size:  8707
    x264 [info]: consecutive B-frames:  5.6% 21.9% 39.5% 32.9%
    x264 [info]: mb I  I16..4:  6.4% 59.8% 33.8%
    x264 [info]: mb P  I16..4:  3.1%  5.3%  2.2%  P16..4: 50.6% 24.1% 10.6%  0.0%  0.0%    skip: 4.2%
    x264 [info]: mb B  I16..4:  0.2%  0.8%  0.3%  B16..8: 43.3%  8.8%  1.5%  direct: 4.6%  skip:40.6%  L0:40.2% L1:51.9% BI: 7.8%
    x264 [info]: 8x8 transform intra:54.0% inter:45.6%
    x264 [info]: coded y,uvDC,uvAC intra: 74.5% 81.9% 61.7% inter: 25.1% 26.9% 16.0%
    x264 [info]: i16 v,h,dc,p: 64% 10%  5% 21%
    x264 [info]: i8 v,h,dc,ddl,ddr,vr,hd,vl,hu:  8%  7%  5% 12% 16% 15% 15% 12% 11%
    x264 [info]: i4 v,h,dc,ddl,ddr,vr,hd,vl,hu:  9%  8%  3% 12% 17% 15% 14% 11% 10%
    x264 [info]: i8c dc,h,v,p: 57% 16% 16% 11%
    x264 [info]: ref P L0: 73.7% 15.7% 10.6%
    x264 [info]: ref B L0: 79.2% 20.8%
    x264 [info]: kb/s:3487.66

    Скриншоты

    -

    Релиз подготовлен для просмотра на Apple TV, iPad, iPhone, iPod Touch.
    Для просмотра данного релиза на компьютере с ОС Windows рекомендуется использовать VLC media player
    Скачать .torrent

    Скачать торрент-файл бесплатно и на максимальной скорости!

    Как скачивать? · Что такое торрент? · Рейтинг и ограничения

    !ВНИМАНИЕ!
    Сайт не распространяет и не хранит электронные версии произведений, а занимается лишь лишь предоставлением доступа к создаваемому пользователями каталогу ссылок на торрент-файлы, которые содержат только списки хеш-сумм, убедительная просьба с жалобами обращаться напрямую к пользователю. Файлы для обмена на трекере предоставлены пользователями сайта, и администрация не несёт ответственности за их содержание. Просьба не заливать файлы, защищенные авторскими правами, а также файлы нелегального содержания!


    _________________
    [Профиль] [ЛС]
    Показать сообщения:    
    Ответить на тему

    Текущее время: Сегодня, в 04:00

    Часовой пояс: GMT + 2



    Вы не можете начинать темы
    Вы не можете отвечать на сообщения
    Вы не можете редактировать свои сообщения
    Вы не можете удалять свои сообщения
    Вы не можете голосовать в опросах
    Вы не можете прикреплять файлы к сообщениям
    Вы не можете скачивать файлы