BitTorrentTracker PerecTracker.org
BitTorrentTracker PerecTracker.org
    
Регистрация  ·  Вход
 
 · 
Забыли пароль?

  • Аферисты Дик и Джейн / Fun with Dick and Jane (Дин Паризо) [2005, США, комедия, криминал, WEB-DL HD (720p)] DUB, MVO, DVO, Original + SUB (rus, eng)

    Ответить на тему
     
    Автор Сообщение

    rechyn

    Создавать темы 30-Июл-2015 23:34

           

    [Цитировать]

    Аферисты Дик и Джейн / Fun with Dick and Jane
    "Giving Big Businesses a Run For Their Money!"
    7.110 / 10
    -Год выпуска: 2005
    Страна: США
    Жанр: комедия, криминал
    Продолжительность: 90 мин.
    Перевод: Профессиональный дублированный перевод, многоголосый закадровый перевод и двухголосый закадровый перевод
    Оригинальная аудиодорожка: Есть
    Cубтитры: Русские полные и английские полные
    Режиссёр: Дин Паризо
    Сценарий: Джудд Апатоу, Николас Столлер, Джералд Гэйзер
    Продюсер: Джим Керри, Брайан Грейзер, Питер Барт
    Оператор: Ежи Зелиньский
    Композитор: Теодор Шапиро
    Художник: Бэрри Робисан, Грегори С. Хупер, Трой Сайзмор
    Монтаж: Дон Циммерман
    В ролях: Джим Керри, Теа Леони, Алек Болдуин, Ричард Дженкинс, Энджи Хармон, Джон Майкл Хиггинс, Ричард Берджи, Карлос Джекотт, Аарон Майкл Дрозин, Глория Гараюа
    Роли дублировали: Олег Куликович, Анна Геллер, Сергей Паршин, Валерий Соловьев, Вадим Яковлев
    Бюджет: $100 000 000
    Сборы в США: $110 332 737
    Сборы в мире: + $91 248 116 = $201 580 853
    Сборы в России: $3 355 000
    Мировая премьера: 21 декабря 2005
    Премьера (РФ): 2 марта 2006, Каскад
    Релиз на DVD: 8 июня 2006, Columbia/Sony
    Описание: Дик Харпер и его молодая жена Джейн привыкли жить красиво. Но в тот момент, когда они затевают строительство бассейна, Дика неожиданно увольняют, оставив его с непогашенной задолжностью за дом в $70 тыс.
    Понимая, что долго скрывать от соседей бедственность своего положения им не удастся, парочка начинает промышлять мелким грабежом, постепенно входя во вкус.-Качество исходника: WEB-DL 720p (HDClub)
    Качество: WEB-DL
    Тип: 720p
    Контейнер: m4v
    Видео: 1280x720 at 23.976 fps, MPEG-4 AVC, ~3900 kbps avg
    Аудио#1: Russian: 48 kHz, ААС, 2/0 (L,R), ~160.00 kbps avg |Дубляж, iTunes Russia|
    Аудио#2: Russian: 48 kHz, ААС, 2/0 (L,R), ~160.00 kbps avg |Двухголосый закадровый, Tycoon|
    Аудио#3: Russian: 48 kHz, ААС, 2/0 (L,R), ~160.00 kbps avg |Двухголосый закадровый, П. Гланц и И. Королева|
    Аудио#4: Ukrainian: 48 kHz, ААС, 2/0 (L,R), ~160.00 kbps avg |Многоголосый закадровый, 1+1|
    Аудио#5: English: 48 kHz, ААС, 2/0 (L,R), ~160.00 kbps avg
    Аудио#6: Russian: 48 kHz, AC3, 3/2 (L,C,R,l,r) + LFE ch, ~384.00 kbps avg |Дубляж, iTunes Russia|
    Аудио#7: Russian: 48 kHz, AC3, 3/2 (L,C,R,l,r) + LFE ch, ~448.00 kbps avg |Двухголосый закадровый, Tycoon|
    Аудио#8: Russian: 48 kHz, AC3, 3/2 (L,C,R,l,r) + LFE ch, ~448.00 kbps avg |Двухголосый закадровый, П. Гланц и И. Королева|
    Аудио#9: English: 48 kHz, AC3, 3/2 (L,C,R,l,r) + LFE ch, ~384.00 kbps avg
    Субтитры №1: Russian: |Полные|
    Субтитры №2: English: |Полные|-

    Знаете ли Вы, что...
  • Режиссером данного проекта должен был стать Барри Зонненфельд, но ему пришлось покинуть картину в связи с личными проблемами.
  • Роль Джейн предназначалась для Кэмерон Диаз. Незадолго до начала съемок актриса отказалась от участия ввиду насыщенного съемочного графика.
  • Кинокомпания «Paramount Pictures» выплатила студии «Sony» неустойку размером свыше 100 тысяч долларов за сдвиг сроков примерно на неделю. Задержка была вызвана отсутствием Джима Керри на съемочной площадке. В это время Джим был задействован в промо-кампании картины «Лемони Сникет: 33 несчастья».
    -

    iTunes Meta Tags for country us

    Name: Fun With Dick and Jane
    Artist: Dean Parisot
    Genre: Comedy
    Release Date: 2005-12-21T08:00:00Z
    Description: Дик Харпер и его молодая жена Джейн привыкли жить красиво. Но в тот момент, когда они затевают строительство бассейна, Дика неожиданно увольняют, оставив его с непогашенной задолжностью за дом в $70 тыс...
    Long Description: Дик Харпер и его молодая жена Джейн привыкли жить красиво. Но в тот момент, когда они затевают строительство бассейна, Дика неожиданно увольняют, оставив его с непогашенной задолжностью за дом в $70 тыс.
    Понимая, что долго скрывать от соседей бедственность своего положения им не удастся, парочка начинает промышлять мелким грабежом, постепенно входя во вкус.
    Rating: PG-13
    Rating Annotation: Rated PG-13 For brief language, some sexual humor and occasional humorous drug references.
    Studio: Sony Pictures
    Cast: Джим Керри, Теа Леони, Алек Болдуин, Ричард Дженкинс, Энджи Хармон, Джон Майкл Хиггинс, Ричард Берджи, Карлос Джекотт, Аарон Майкл Дрозин, Глория Гараюа
    Director: Дин Паризо
    Producers: Джим Керри, Брайан Грейзер, Питер Барт
    Screenwriters: Джудд Апатоу, Николас Столлер, Джералд Гэйзер
    Copyright: © 2005 Columbia Pictures Industries, Inc. All Rights Reserved.
    contentID: 277049298
    XID: Apple:vendor_id:2005-61438
    Sort Name: Fun With Dick and Jane

    iTunes Meta Tags for country ru

    Name: АФЕРИСТЫ: ДИК И ДЖЕЙН РАЗВЛЕКАЮТСЯ (Fun with Dick and Jane)
    Artist: Dean Parisot
    Genre: Комедии
    Release Date: 2005-12-21T08:00:00Z
    Description: Дик Харпер и его молодая жена Джейн привыкли жить красиво. Но в тот момент, когда они затевают строительство бассейна, Дика неожиданно увольняют, оставив его с непогашенной задолжностью за дом в $70 тыс...
    Long Description: Дик Харпер и его молодая жена Джейн привыкли жить красиво. Но в тот момент, когда они затевают строительство бассейна, Дика неожиданно увольняют, оставив его с непогашенной задолжностью за дом в $70 тыс.
    Понимая, что долго скрывать от соседей бедственность своего положения им не удастся, парочка начинает промышлять мелким грабежом, постепенно входя во вкус.
    Rating: 0+
    Studio: Columbia Pictures
    Cast: Джим Керри, Теа Леони, Алек Болдуин, Ричард Дженкинс, Энджи Хармон, Джон Майкл Хиггинс, Ричард Берджи, Карлос Джекотт, Аарон Майкл Дрозин, Глория Гараюа
    Director: Дин Паризо
    Producers: Джим Керри, Брайан Грейзер, Питер Барт
    Screenwriters: Джудд Апатоу, Николас Столлер, Джералд Гэйзер
    contentID: 532940306
    XID: Apple:vendor_id:2005-61438
    Sort Name: АФЕРИСТЫ: ДИК И ДЖЕЙН РАЗВЛЕКАЮТСЯ (Fun with Dick and Jane)

    MediaInfo 720p Release

    General
    Complete name : Fun With Dick and Jane (HD).m4v
    Format : MPEG-4
    Codec ID : M4V
    File size : 4.01 GiB
    Duration : 1h 30mn
    Overall bit rate mode : Variable
    Overall bit rate : 6 363 Kbps
    Movie name : Fun With Dick and Jane
    Performer : Dean Parisot
    Director : Дин Паризо
    Actor : Джим Керри / Теа Леони / Алек Болдуин / Ричард Дженкинс / Энджи Хармон / Джон Майкл Хиггинс / Ричард Берджи / Карлос Джекотт / Аарон Майкл Дрозин / Глория Гараюа
    Screenplay by : Джудд Апатоу / Николас Столлер / Джералд Гэйзер
    Producer : Джим Керри / Брайан Грейзер / Питер Барт
    Production studio : Sony Pictures
    Genre : Comedy
    ContentType : Short Film
    Description : Дик Харпер и его молодая жена Джейн привыкли жить красиво. Но в тот момент, когда они затевают строительство бассейна, Дика неожиданно увольняют, оставив его с непогашенной задолжностью за дом в $70 тыс...
    Recorded date : UTC 2005-12-21 08:00:00
    Encoded date : UTC 2015-07-30 09:32:56
    Tagged date : UTC 2015-07-30 09:36:49
    Copyright : © 2005 Columbia Pictures Industries, Inc. All Rights Reserved.
    Cover : Yes
    Rating : None
    Title/Sort : Fun With Dick and Jane
    LongDescription : Дик Харпер и его молодая жена Джейн привыкли жить красиво. Но в тот момент, когда они затевают строительство бассейна, Дика неожиданно увольняют, оставив его с непогашенной задолжностью за дом в $70 тыс. / Понимая, что долго скрывать от соседей бедственность своего положения им не удастся, парочка начинает промышлять мелким грабежом, постепенно входя во вкус.
    HDVideo : Yes
    AppleStoreCatalogID : 277049298
    Vendor : Apple:vendor_id:2005-61438
    ContentRating : mpaa|PG-13|300|Rated PG-13 For brief language, some sexual humor and occasional humorous drug references.
    Video #1
    ID : 1
    Format : AVC
    Format/Info : Advanced Video Codec
    Format profile : High@L3.1
    Format settings, CABAC : No
    Format settings, ReFrames : 2 frames
    Codec ID : avc1
    Codec ID/Info : Advanced Video Coding
    Duration : 1h 30mn
    Bit rate : 3 908 Kbps
    Width : 1 280 pixels
    Height : 720 pixels
    Display aspect ratio : 16:9
    Frame rate mode : Variable
    Frame rate : 23.976 fps
    Minimum frame rate : 23.810 fps
    Maximum frame rate : 24.390 fps
    Color space : YUV
    Chroma subsampling : 4:2:0
    Bit depth : 8 bits
    Scan type : Progressive
    Bits/(Pixel*Frame) : 0.177
    Stream size : 2.47 GiB (61%)
    Title : Main Program
    Language : English
    Encoded date : UTC 2015-07-30 09:32:56
    Tagged date : UTC 2015-07-30 09:35:13
    Color range : Limited
    Color primaries : BT.709
    Transfer characteristics : BT.709
    Matrix coefficients : BT.709
    Video #2
    ID : 14
    Format : JPEG
    Codec ID : jpeg
    Duration : 1h 30mn
    Bit rate mode : Variable
    Bit rate : 1 200 bps
    Width : 640 pixels
    Height : 360 pixels
    Display aspect ratio : 16:9
    Frame rate mode : Variable
    Frame rate : 0.003 fps
    Minimum frame rate : 0.002 fps
    Maximum frame rate : 0.007 fps
    Color space : YUV
    Chroma subsampling : 4:2:0
    Bit depth : 8 bits
    Compression mode : Lossy
    Bits/(Pixel*Frame) : 1.736
    Stream size : 781 KiB (0%)
    Title : Chapter Images
    Language : English
    Encoded date : UTC 2015-07-30 09:35:18
    Tagged date : UTC 2015-07-30 09:35:18
    Audio #1
    ID : 2
    Format : AAC
    Format/Info : Advanced Audio Codec
    Format profile : LC
    Codec ID : 40
    Duration : 1h 30mn
    Bit rate mode : Variable
    Bit rate : 164 Kbps
    Maximum bit rate : 270 Kbps
    Channel(s) : 2 channels
    Channel positions : Front: L R
    Sampling rate : 48.0 KHz
    Compression mode : Lossy
    Stream size : 106 MiB (3%)
    Title : Russian DUB from iTunes Stereo
    Language : Russian
    Encoded date : UTC 2015-07-30 09:32:56
    Tagged date : UTC 2015-07-30 09:33:02
    Audio #2
    ID : 3
    Format : AAC
    Format/Info : Advanced Audio Codec
    Format profile : LC
    Codec ID : 40
    Duration : 1h 30mn
    Bit rate mode : Variable
    Bit rate : 163 Kbps
    Maximum bit rate : 264 Kbps
    Channel(s) : 2 channels
    Channel positions : Front: L R
    Sampling rate : 48.0 KHz
    Compression mode : Lossy
    Stream size : 105 MiB (3%)
    Title : Russian DVO Tycoon Stereo
    Language : Russian
    Encoded date : UTC 2015-07-30 09:32:56
    Tagged date : UTC 2015-07-30 09:33:02
    Audio #3
    ID : 4
    Format : AAC
    Format/Info : Advanced Audio Codec
    Format profile : LC
    Codec ID : 40
    Duration : 1h 30mn
    Bit rate mode : Variable
    Bit rate : 164 Kbps
    Maximum bit rate : 267 Kbps
    Channel(s) : 2 channels
    Channel positions : Front: L R
    Sampling rate : 48.0 KHz
    Compression mode : Lossy
    Stream size : 106 MiB (3%)
    Title : Russian DVO P.Glanz & I.Koroleva Stereo
    Language : Russian
    Encoded date : UTC 2015-07-30 09:32:56
    Tagged date : UTC 2015-07-30 09:33:02
    Audio #4
    ID : 5
    Format : AAC
    Format/Info : Advanced Audio Codec
    Format profile : LC
    Codec ID : 40
    Duration : 1h 30mn
    Bit rate mode : Variable
    Bit rate : 119 Kbps
    Maximum bit rate : 133 Kbps
    Channel(s) : 2 channels
    Channel positions : Front: L R
    Sampling rate : 48.0 KHz
    Compression mode : Lossy
    Stream size : 76.7 MiB (2%)
    Title : Ukrainian MVO 1+1 Stereo
    Language : Ukrainian
    Encoded date : UTC 2015-07-30 09:32:56
    Tagged date : UTC 2015-07-30 09:33:02
    Audio #5
    ID : 6
    Format : AAC
    Format/Info : Advanced Audio Codec
    Format profile : LC
    Codec ID : 40
    Duration : 1h 30mn
    Bit rate mode : Variable
    Bit rate : 164 Kbps
    Maximum bit rate : 266 Kbps
    Channel(s) : 2 channels
    Channel positions : Front: L R
    Sampling rate : 48.0 KHz
    Compression mode : Lossy
    Stream size : 106 MiB (3%)
    Title : English Stereo
    Language : English
    Encoded date : UTC 2015-07-30 09:32:56
    Tagged date : UTC 2015-07-30 09:33:02
    Audio #6
    ID : 7
    Format : AC-3
    Format/Info : Audio Coding 3
    Mode extension : CM (complete main)
    Format settings, Endianness : Big
    Codec ID : ac-3
    Duration : 1h 30mn
    Bit rate mode : Constant
    Bit rate : 384 Kbps
    Channel(s) : 6 channels
    Channel positions : Front: L C R, Side: L R, LFE
    Sampling rate : 48.0 KHz
    Bit depth : 16 bits
    Compression mode : Lossy
    Stream size : 248 MiB (6%)
    Title : Russian DUB from iTunes DD 5.1
    Language : Russian
    Encoded date : UTC 2015-07-30 09:32:56
    Tagged date : UTC 2015-07-30 09:35:13
    Audio #7
    ID : 8
    Format : AC-3
    Format/Info : Audio Coding 3
    Mode extension : CM (complete main)
    Format settings, Endianness : Big
    Codec ID : ac-3
    Duration : 1h 30mn
    Bit rate mode : Constant
    Bit rate : 448 Kbps
    Channel(s) : 6 channels
    Channel positions : Front: L C R, Side: L R, LFE
    Sampling rate : 48.0 KHz
    Bit depth : 16 bits
    Compression mode : Lossy
    Stream size : 289 MiB (7%)
    Title : Russian DVO Tycoon DD 5.1
    Language : Russian
    Encoded date : UTC 2015-07-30 09:32:56
    Tagged date : UTC 2015-07-30 09:35:13
    Audio #8
    ID : 9
    Format : AC-3
    Format/Info : Audio Coding 3
    Mode extension : CM (complete main)
    Format settings, Endianness : Big
    Codec ID : ac-3
    Duration : 1h 30mn
    Bit rate mode : Constant
    Bit rate : 448 Kbps
    Channel(s) : 6 channels
    Channel positions : Front: L C R, Side: L R, LFE
    Sampling rate : 48.0 KHz
    Bit depth : 16 bits
    Compression mode : Lossy
    Stream size : 289 MiB (7%)
    Title : Russian DVO P.Glanz & I.Koroleva DD 5.1
    Language : Russian
    Encoded date : UTC 2015-07-30 09:32:56
    Tagged date : UTC 2015-07-30 09:35:13
    Audio #9
    ID : 10
    Format : AC-3
    Format/Info : Audio Coding 3
    Mode extension : CM (complete main)
    Format settings, Endianness : Big
    Codec ID : ac-3
    Duration : 1h 30mn
    Bit rate mode : Constant
    Bit rate : 384 Kbps
    Channel(s) : 6 channels
    Channel positions : Front: L C R, Side: L R, LFE
    Sampling rate : 48.0 KHz
    Bit depth : 16 bits
    Compression mode : Lossy
    Stream size : 248 MiB (6%)
    Title : English DD 5.1
    Language : English
    Encoded date : UTC 2015-07-30 09:32:56
    Tagged date : UTC 2015-07-30 09:35:13
    Text #1
    ID : 11
    Format : Timed Text
    Muxing mode : sbtl
    Codec ID : tx3g
    Duration : 1h 24mn
    Bit rate mode : Variable
    Bit rate : 119 bps
    Stream size : 73.6 KiB (0%)
    Title : Russian P.Glanz Subtitle
    Language : Russian
    Encoded date : UTC 2015-07-30 09:32:56
    Tagged date : UTC 2015-07-30 09:32:56
    Text #2
    ID : 12
    Format : Timed Text
    Muxing mode : sbtl
    Codec ID : tx3g
    Duration : 1h 24mn
    Bit rate mode : Variable
    Bit rate : 80 bps
    Stream size : 49.4 KiB (0%)
    Title : English Subtitle
    Language : English
    Encoded date : UTC 2015-07-30 09:32:56
    Tagged date : UTC 2015-07-30 09:32:56
    Menu #1
    00:00:00.000 : 1
    00:07:52.000 : 2
    00:14:10.999 : 3
    00:21:28.000 : 4
    00:27:53.000 : 5
    00:33:07.000 : 6
    00:43:40.000 : 7
    00:50:05.000 : 8
    00:57:40.000 : 9
    00:59:56.000 : 10
    01:04:27.000 : 11
    01:08:24.000 : 12
    01:13:41.000 : 13
    01:16:57.000 : 14
    01:20:29.000 : 15
    01:23:45.000 : 16
    Menu #2
    ID : 13
    Codec ID : text
    Duration : 1h 30mn
    Title : Chapter Titles
    Language : English
    Encoded date : UTC 2015-07-30 09:35:13
    Tagged date : UTC 2015-07-30 09:35:13
    00:00:00.000 : 1
    00:07:52.000 : 2
    00:14:10.999 : 3
    00:21:28.000 : 4
    00:27:53.000 : 5
    00:33:07.000 : 6
    00:43:40.000 : 7
    00:50:05.000 : 8
    00:57:40.000 : 9
    00:59:56.000 : 10
    01:04:27.000 : 11
    01:08:24.000 : 12
    01:13:41.000 : 13
    01:16:57.000 : 14
    01:20:29.000 : 15
    01:23:45.000 : 16
    Bit rate mode : VBR

    Скриншоты 720p Release

    Цитата:
    Цитата:

    • Сохранены оригинальные главы.
    • Исходная WEB-DL из iTunes Russia.
    • Дорожка с Гланцем взята с диска Superbit'а, за дорожку Tycoon'а спасибо arvideo (рутрекер).
    • Русские субтитры взяты с субтитры.ру.
    • За украинскую дорожку спасибо hurtom (Delight).
    -

    Релиз подготовлен для просмотра на Apple TV, iPad, iPhone, iPod Touch.
    Для просмотра данного релиза на компьютере с ОС Windows рекомендуется использовать VLC media player
    Скачать .torrent

    Скачать торрент-файл бесплатно и на максимальной скорости!

    Как скачивать? · Что такое торрент? · Рейтинг и ограничения

    !ВНИМАНИЕ!
    Сайт не распространяет и не хранит электронные версии произведений, а занимается лишь лишь предоставлением доступа к создаваемому пользователями каталогу ссылок на торрент-файлы, которые содержат только списки хеш-сумм, убедительная просьба с жалобами обращаться напрямую к пользователю. Файлы для обмена на трекере предоставлены пользователями сайта, и администрация не несёт ответственности за их содержание. Просьба не заливать файлы, защищенные авторскими правами, а также файлы нелегального содержания!


  • _________________
    [Профиль] [ЛС]
    Показать сообщения:    
    Ответить на тему

    Текущее время: Сегодня, в 00:30

    Часовой пояс: GMT + 2



    Вы не можете начинать темы
    Вы не можете отвечать на сообщения
    Вы не можете редактировать свои сообщения
    Вы не можете удалять свои сообщения
    Вы не можете голосовать в опросах
    Вы не можете прикреплять файлы к сообщениям
    Вы не можете скачивать файлы