BitTorrentTracker PerecTracker.org
BitTorrentTracker PerecTracker.org
    
Регистрация  ·  Вход
 
 · 
Забыли пароль?

  • Игра на высоте / When the Game Stands Tall (Томас Картер) [2014, США, драма, спорт, WEB-DL HD (720p)] MVO, Original + SUB (rus forced, eng)

    Ответить на тему
     
    Автор Сообщение

    rechyn

    Создавать темы 30-Июл-2015 23:34

           

    [Цитировать]

    Игра на высоте / When the Game Stands Tall
    6.766 / 10
    -Год выпуска: 2014
    Страна: США
    Жанр: драма, спорт
    Продолжительность: 115 мин.
    Перевод: Многоголосый закадровый перевод
    Оригинальная аудиодорожка: Есть
    Cубтитры: Русские форсированные и английские полные
    Режиссёр: Томас Картер
    Сценарий: Скотт Маршалл Смит, Дэвид Зелон, Нил Хэйес
    Продюсер: Дэвид Зелон, Кеннет Бурк, Nathon S. Lewis
    Оператор: Майкл Ломанн
    Композитор: Джон Песано
    Художник: Джеймс Хинкль, Рэймонд Пумилия, Клер Бро
    Монтаж: Скотт Рихтер
    В ролях: Джеймс Кэвизел, Майкл Чиклис, Александр Людвиг, Клэнси Браун, Лора Дерн, Мэттью Даддарио, Джо Массинджилл, Джесси Ашер, Сер’Дариус Блэйн, Стивен Джеймс
    Роли дублировали: Даниил Эльдаров, Сергей Чихачев, Анастасия Лапина, Максим Шишков
    Бюджет: $15 000 000
    Сборы в США: $30 127 963
    Мировая премьера: 4 августа 2014
    Описание: Фильм основан на реальных событиях. Это история футбольного тренера, благодаря которому безызвестная школьная футбольная команда провела победную серию из 151 игры.-Качество исходника: WEB-DL 720p (HDClub)
    Качество: WEB-DL
    Тип: 720p
    Контейнер: m4v
    Видео: 1280x686 at 23.976 fps, MPEG-4 AVC, ~4200 kbps avg
    Аудио#1: Russian: 48 kHz, ААС, 2/0 (L,R), ~160.00 kbps avg |Многоголосый закадровый, iTunes Russia|
    Аудио#2: English: 48 kHz, ААС, 2/0 (L,R), ~160.00 kbps avg
    Аудио#3: Russian: 48 kHz, AC3, 3/2 (L,C,R,l,r) + LFE ch, ~384.00 kbps avg |Многоголосый закадровый, iTunes Russia|
    Субтитры №1: Russian: |Форсированные, iTunes Russia|
    Субтитры №2: English: |Полные, iTunes Russia|-

    Знаете ли Вы, что...
  • Кинокомпания «Sony Pictures Entertainment» перед началом съемок пригласила оценить фильм американского кинокритика Тэда Бейера, основателя организации «Christian Film and Television Commission».
    -

    iTunes Meta Tags for country ru

    Name: Игра На Высоте
    Artist: Thomas Carter
    Genre: Спорт
    Release Date: 2014-08-04T08:00:00Z
    Description: Фильм основан на реальных событиях. Это история футбольного тренера, благодаря которому безызвестная школьная футбольная команда провела победную серию из 151 игры.
    Long Description: Фильм основан на реальных событиях. Это история футбольного тренера, благодаря которому безызвестная школьная футбольная команда провела победную серию из 151 игры.
    Rating: 18+
    Studio: Affirm Films; Mandalay Pictures
    Cast: Джеймс Кэвизел, Майкл Чиклис, Александр Людвиг, Клэнси Браун, Лора Дерн, Мэттью Даддарио, Джо Массинджилл, Джесси Ашер, Сер’Дариус Блэйн, Стивен Джеймс
    Director: Томас Картер
    Producers: Дэвид Зелон, Кеннет Бурк, Nathon S. Lewis
    Screenwriters: Скотт Маршалл Смит, Дэвид Зелон, Нил Хэйес
    contentID: 905591762
    XID: Apple:vendor_id:2014-692451
    Sort Name: Игра На Высоте

    iTunes Meta Tags for country us

    Name: When the Game Stands Tall
    Artist: Thomas Carter
    Genre: Sports
    Release Date: 2014-08-04T08:00:00Z
    Description: Фильм основан на реальных событиях. Это история футбольного тренера, благодаря которому безызвестная школьная футбольная команда провела победную серию из 151 игры.
    Long Description: Фильм основан на реальных событиях. Это история футбольного тренера, благодаря которому безызвестная школьная футбольная команда провела победную серию из 151 игры.
    Rating: PG
    Rating Annotation: Rated PG Thematic material, a scene of violence, and brief smoking
    Studio: Affirm Films; Mandalay Pictures
    Cast: Джеймс Кэвизел, Майкл Чиклис, Александр Людвиг, Клэнси Браун, Лора Дерн, Мэттью Даддарио, Джо Массинджилл, Джесси Ашер, Сер’Дариус Блэйн, Стивен Джеймс
    Director: Томас Картер
    Producers: Дэвид Зелон, Кеннет Бурк, Nathon S. Lewis
    Screenwriters: Скотт Маршалл Смит, Дэвид Зелон, Нил Хэйес
    contentID: 905591762
    XID: Apple:vendor_id:2014-692451
    Sort Name: When the Game Stands Tall

    MediaInfo 720p Release

    General
    Complete name : When the Game Stands Tall (HD).m4v
    Format : MPEG-4
    Codec ID : M4V
    File size : 3.94 GiB
    Duration : 1h 55mn
    Overall bit rate mode : Variable
    Overall bit rate : 4 899 Kbps
    Movie name : When the Game Stands Tall
    Performer : Thomas Carter
    Director : Томас Картер
    Actor : Джеймс Кэвизел / Майкл Чиклис / Александр Людвиг / Клэнси Браун / Лора Дерн / Мэттью Даддарио / Джо Массинджилл / Джесси Ашер / Сер’Дариус Блэйн / Стивен Джеймс
    Screenplay by : Скотт Маршалл Смит / Дэвид Зелон / Нил Хэйес
    Producer : Дэвид Зелон / Кеннет Бурк / Nathon S. Lewis
    Production studio : Affirm Films; Mandalay Pictures
    Genre : Sports
    ContentType : Short Film
    Description : Фильм основан на реальных событиях. Это история футбольного тренера, благодаря которому безызвестная школьная футбольная команда провела победную серию из 151 игры.
    Recorded date : UTC 2014-08-04 08:00:00
    Encoded date : UTC 2015-07-30 06:32:15
    Tagged date : UTC 2015-07-30 06:35:38
    Cover : Yes
    Rating : None
    Title/Sort : When the Game Stands Tall
    LongDescription : Фильм основан на реальных событиях. Это история футбольного тренера, благодаря которому безызвестная школьная футбольная команда провела победную серию из 151 игры.
    HDVideo : Yes
    AppleStoreCatalogID : 905591762
    Vendor : Apple:vendor_id:2014-692451
    ContentRating : mpaa|PG|200|Rated PG Thematic material, a scene of violence, and brief smoking
    Video #1
    ID : 1
    Format : AVC
    Format/Info : Advanced Video Codec
    Format profile : High@L3.1
    Format settings, CABAC : No
    Format settings, ReFrames : 2 frames
    Format settings, GOP : M=2, N=79
    Codec ID : avc1
    Codec ID/Info : Advanced Video Coding
    Duration : 1h 55mn
    Bit rate : 4 185 Kbps
    Width : 1 280 pixels
    Height : 686 pixels
    Display aspect ratio : 1.85:1
    Frame rate mode : Variable
    Frame rate : 23.976 fps
    Minimum frame rate : 23.810 fps
    Maximum frame rate : 24.390 fps
    Color space : YUV
    Chroma subsampling : 4:2:0
    Bit depth : 8 bits
    Scan type : Progressive
    Bits/(Pixel*Frame) : 0.199
    Stream size : 3.37 GiB (85%)
    Title : Main Program
    Language : English
    Encoded date : UTC 2015-07-30 06:32:15
    Tagged date : UTC 2015-07-30 06:34:31
    Color range : Limited
    Color primaries : BT.709
    Transfer characteristics : BT.709
    Matrix coefficients : BT.709
    Video #2
    ID : 8
    Format : JPEG
    Codec ID : jpeg
    Duration : 1h 55mn
    Bit rate mode : Variable
    Bit rate : 670 bps
    Width : 640 pixels
    Height : 343 pixels
    Display aspect ratio : 1.85:1
    Frame rate mode : Variable
    Frame rate : 0.002 fps
    Minimum frame rate : 0.002 fps
    Maximum frame rate : 0.003 fps
    Color space : YUV
    Chroma subsampling : 4:2:0
    Bit depth : 8 bits
    Compression mode : Lossy
    Bits/(Pixel*Frame) : 1.526
    Stream size : 655 KiB (0%)
    Title : Chapter Images
    Language : English
    Encoded date : UTC 2015-07-30 06:34:39
    Tagged date : UTC 2015-07-30 06:34:40
    Audio #1
    ID : 2
    Format : AAC
    Format/Info : Advanced Audio Codec
    Format profile : LC
    Codec ID : 40
    Duration : 1h 55mn
    Bit rate mode : Variable
    Bit rate : 164 Kbps
    Maximum bit rate : 244 Kbps
    Channel(s) : 2 channels
    Channel positions : Front: L R
    Sampling rate : 48.0 KHz
    Compression mode : Lossy
    Stream size : 135 MiB (3%)
    Title : Russian MVO from iTunes Stereo
    Language : Russian
    Encoded date : UTC 2015-07-30 06:32:15
    Tagged date : UTC 2015-07-30 06:32:20
    Audio #2
    ID : 3
    Format : AAC
    Format/Info : Advanced Audio Codec
    Format profile : LC
    Codec ID : 40
    Duration : 1h 55mn
    Bit rate mode : Variable
    Bit rate : 155 Kbps
    Maximum bit rate : 243 Kbps
    Channel(s) : 2 channels
    Channel positions : Front: L R
    Sampling rate : 48.0 KHz
    Compression mode : Lossy
    Stream size : 128 MiB (3%)
    Title : English Stereo
    Language : English
    Encoded date : UTC 2015-07-30 06:32:15
    Tagged date : UTC 2015-07-30 06:34:31
    Audio #3
    ID : 4
    Format : AC-3
    Format/Info : Audio Coding 3
    Mode extension : CM (complete main)
    Format settings, Endianness : Big
    Codec ID : ac-3
    Duration : 1h 55mn
    Bit rate mode : Constant
    Bit rate : 384 Kbps
    Channel(s) : 6 channels
    Channel positions : Front: L C R, Side: L R, LFE
    Sampling rate : 48.0 KHz
    Bit depth : 16 bits
    Compression mode : Lossy
    Stream size : 316 MiB (8%)
    Title : Russian MVO from iTunes DD 5.1
    Language : Russian
    Encoded date : UTC 2015-07-30 06:32:15
    Tagged date : UTC 2015-07-30 06:34:31
    Text #1
    ID : 5
    Format : Timed Text
    Muxing mode : sbtl
    Codec ID : tx3g
    Duration : 1h 52mn
    Bit rate mode : Variable
    Bit rate : 5 bps
    Stream size : 4.04 KiB (0%)
    Title : Russian Forced Subtitle
    Language : Russian
    Encoded date : UTC 2015-07-30 06:32:15
    Tagged date : UTC 2015-07-30 06:32:15
    Text #2
    ID : 6
    Format : Timed Text
    Muxing mode : sbtl
    Codec ID : tx3g
    Duration : 1h 53mn
    Bit rate mode : Variable
    Bit rate : 85 bps
    Stream size : 70.3 KiB (0%)
    Title : English Subtitle
    Language : English
    Encoded date : UTC 2015-07-30 06:32:15
    Tagged date : UTC 2015-07-30 06:32:15
    Menu #1
    00:00:00.000 : 1
    00:10:05.000 : 2
    00:17:35.000 : 3
    00:23:08.000 : 4
    00:28:48.000 : 5
    00:37:09.000 : 6
    00:44:59.000 : 7
    00:52:03.000 : 8
    00:59:21.000 : 9
    01:06:50.000 : 10
    01:13:10.000 : 11
    01:20:38.000 : 12
    01:26:45.000 : 13
    01:35:31.000 : 14
    01:42:29.000 : 15
    01:47:49.000 : 16
    Menu #2
    ID : 7
    Codec ID : text
    Duration : 1h 55mn
    Title : Chapter Titles
    Language : English
    Encoded date : UTC 2015-07-30 06:34:31
    Tagged date : UTC 2015-07-30 06:34:31
    00:00:00.000 : 1
    00:10:05.000 : 2
    00:17:35.000 : 3
    00:23:08.000 : 4
    00:28:48.000 : 5
    00:37:09.000 : 6
    00:44:59.000 : 7
    00:52:03.000 : 8
    00:59:21.000 : 9
    01:06:50.000 : 10
    01:13:10.000 : 11
    01:20:38.000 : 12
    01:26:45.000 : 13
    01:35:31.000 : 14
    01:42:29.000 : 15
    01:47:49.000 : 16
    Bit rate mode : VBR

    Скриншоты 720p Release

    -

    Релиз подготовлен для просмотра на Apple TV, iPad, iPhone, iPod Touch.
    Для просмотра данного релиза на компьютере с ОС Windows рекомендуется использовать VLC media player
    Скачать .torrent

    Скачать торрент-файл бесплатно и на максимальной скорости!

    Как скачивать? · Что такое торрент? · Рейтинг и ограничения

    !ВНИМАНИЕ!
    Сайт не распространяет и не хранит электронные версии произведений, а занимается лишь лишь предоставлением доступа к создаваемому пользователями каталогу ссылок на торрент-файлы, которые содержат только списки хеш-сумм, убедительная просьба с жалобами обращаться напрямую к пользователю. Файлы для обмена на трекере предоставлены пользователями сайта, и администрация не несёт ответственности за их содержание. Просьба не заливать файлы, защищенные авторскими правами, а также файлы нелегального содержания!


  • _________________
    [Профиль] [ЛС]
    Показать сообщения:    
    Ответить на тему

    Текущее время: Сегодня, в 06:09

    Часовой пояс: GMT + 2



    Вы не можете начинать темы
    Вы не можете отвечать на сообщения
    Вы не можете редактировать свои сообщения
    Вы не можете удалять свои сообщения
    Вы не можете голосовать в опросах
    Вы не можете прикреплять файлы к сообщениям
    Вы не можете скачивать файлы