BitTorrentTracker PerecTracker.org
BitTorrentTracker PerecTracker.org
    
Регистрация  ·  Вход
 
 · 
Забыли пароль?

  • Свадьба Ричарда / Richard\'s Wedding (Онур Тукел / Onur Tukel) [2012, США, комедия, DVB-AVC] DVO (Kino Polska)

    Ответить на тему
     
    Автор Сообщение

    Light

    Создавать темы 30-Июл-2015 23:34

           

    [Цитировать]

    Свадьба Ричарда
    Richard's Wedding-Страна: США
    Жанр: комедия
    Год выпуска: 2012
    Продолжительность: 01:24:43Перевод: Профессиональный (двухголосый закадровый) по заказу Kino Polska на производственно-технической базе Студии "Акцент"
    Cубтитры: нет
    Режиссер: Онур Тукел / Onur Tukel
    В ролях: Лоуренс Майкл Ливайн / Lawrence Michael Levine (Richard), Жозефин Декер / Josephine Decker (Phoebe), Уна Мекас / Oona Mekas (Kristin), Дженнифер Предигер / Jennifer Prediger (Alex), Онур Тукел / Onur Tukel (Tuna), Дастин Гай / Dustin Guy Defa (Taco), Даррилл Розен / Darrill Rosen (Russell)
    Описание: Когда компания старых друзей собирается отпраздновать свадьбу в Центральном парке, начинается неожиданное безумие…
    Доп. информация: Filmbox Arthouse IPTV
    Награды: приз Independent Visions Award за лучший сценарий Sarasota Film Festival 2012 + номинация на лучший фильм.

    Качество видео: DVB-AVC
    Формат видео: MKV
    Видео: AVC (H.264), 720x576@1024x576 (16:9), 25 fps, ~858 kbps avg, 0.083 bit/pixel
    Аудио: MPEG Audio 2, 2 ch, 48 kHz, ~128.00 kbps avg

    MediaInfo

    ОбщееУникальный идентификатор : 173722410716158108973596193272982142305 (0x82B1B822CBAC52E0AFED411D5E27FD61)Полное имя : F:\My Torrents 3\[apreder]Richard's_Wedding(2012)DVB.mkvФормат : MatroskaВерсия формата : Version 2Размер файла : 610 МбайтПродолжительность : 1 ч. 24 м.Общий поток : 1006 Кбит/секДата кодирования : UTC 2015-07-30 17:53:59Программа кодирования : mkvmerge v8.2.0 ('World of Adventure') 64bitБиблиотека кодирования : libebml v1.3.1 + libmatroska v1.4.2Attachements : cover.png / cover_small.png
    ВидеоИдентификатор : 2Формат : AVCФормат/Информация : Advanced Video CodecПрофиль формата : Main@L3Параметр CABAC формата : ДаПараметр ReFrames формата : 3 кадраИдентификатор кодека : V_MPEG4/ISO/AVCПродолжительность : 1 ч. 24 м.Битрейт : 858 Кбит/секШирина : 720 пикселейВысота : 576 пикселейСоотношение сторон : 16:9Соотношение сторон в оригинале : 16:9Режим частоты кадров : ПостоянныйЧастота кадров : 25,000 кадров/секСтандарт вещания : ComponentЦветовое пространство : YUVСубдискретизация насыщенности : 4:2:0Битовая глубина : 8 битТип развёртки : ЧересстрочнаяПорядок развёртки : Верхнее поле первоеБит/(Пиксели*Кадры) : 0.083Размер потока : 520 Мбайт (85%)Default : ДаForced : Нетcolour_range : LimitedОсновные цвета : BT.601 PALХарактеристики трансфера : BT.470 System B, BT.470 System GКоэффициенты матрицы : BT.601
    АудиоИдентификатор : 1Формат : MPEG AudioВерсия формата : Version 1Профиль формата : Layer 2Идентификатор кодека : A_MPEG/L2Идентификатор кодека/Подсказка : MP2Продолжительность : 1 ч. 24 м.Вид битрейта : ПостоянныйБитрейт : 128 Кбит/секКаналы : 2 каналаЧастота : 48,0 КГцМетод сжатия : С потерямиЗадержка видео : -13 мс.Размер потока : 77,6 Мбайт (13%)Язык : RussianDefault : ДаForced : Нет

    Скриншот c названием фильма

    Скриншоты

    Резервные скриншоты


    -[2'509]
    Скачать .torrent

    Скачать торрент-файл бесплатно и на максимальной скорости!

    Как скачивать? · Что такое торрент? · Рейтинг и ограничения

    !ВНИМАНИЕ!
    Сайт не распространяет и не хранит электронные версии произведений, а занимается лишь лишь предоставлением доступа к создаваемому пользователями каталогу ссылок на торрент-файлы, которые содержат только списки хеш-сумм, убедительная просьба с жалобами обращаться напрямую к пользователю. Файлы для обмена на трекере предоставлены пользователями сайта, и администрация не несёт ответственности за их содержание. Просьба не заливать файлы, защищенные авторскими правами, а также файлы нелегального содержания!


    _________________
    [Профиль] [ЛС]
    Показать сообщения:    
    Ответить на тему

    Текущее время: Сегодня, в 02:31

    Часовой пояс: GMT + 2



    Вы не можете начинать темы
    Вы не можете отвечать на сообщения
    Вы не можете редактировать свои сообщения
    Вы не можете удалять свои сообщения
    Вы не можете голосовать в опросах
    Вы не можете прикреплять файлы к сообщениям
    Вы не можете скачивать файлы