BitTorrentTracker PerecTracker.org
BitTorrentTracker PerecTracker.org
    
Регистрация  ·  Вход
 
 · 
Забыли пароль?

  • Мистер Пип / Mr. Pip (Эндрю Адамсон / Andrew Adamson) [2012, Папуа - Новая Гвинея, Австралия, Новая Зеландия, драма, военный, HDRip] MVO (Студия Лексикон)

    Ответить на тему
     
    Автор Сообщение

    Light

    Создавать темы 30-Июл-2015 10:58

           

    [Цитировать]

    Мистер Пип
    Mr. Pip
    Страна: Папуа - Новая Гвинея, Австралия, Новая Зеландия
    Жанр: драма, военный
    Продолжительность: 01:55:27
    Год выпуска: 2012-Перевод: Профессиональный (многоголосый закадровый) Студия Лексикон по заказу кинокомпании Парадиз
    Русские субтитры: нет
    Режиссёр: Эндрю Адамсон / Andrew Adamson-Роли озвучивали: Хью Лори, Xzannjah Matsi, Хилсвиль Джоэль, Эйка Дарвилл, Керри Фокс, Флоренс Корокоро, David Kaumara, Kausibona Mel, Sam Simina-Описание: История мистера Уоттса, последнего белого парня в Бугенвиле. Он открывает школу и читает детям свой любимый роман — «Большие надежды» Чарльза Диккенса. Это помогает ему наладить связь с ними и помочь разобраться в собственных проблемах.-Релиз: | | -• За перевод MVO большое спасибо xfiles !-Качество: HDRip (исходник BDRip 1080p)
    Формат: AVI
    Видео: 688x288 (2.39:1), 23,976 fps, XviD 65 ~771 kbps avg, 0.16 bit/pixel
    Аудио: 48.0 kHz, MPEG Layer 3, 2 ch, ~128 kbps
    Субтитры: отсутствуют

    MI


    Общее
    Полное имя : E:\incarcare\rip gata\Mr.Pip.2012.HDRip.avi
    Формат : AVI
    Формат/Информация : Audio Video Interleave
    Размер файла : 750 Мбайт
    Продолжительность : 1 ч. 55 м.
    Общий поток : 909 Кбит/сек
    Программа кодирования : VirtualDubMod 1.5.10.2 (build 2540/release)
    Библиотека кодирования : VirtualDubMod build 2540/release
    Видео
    Идентификатор : 0
    Формат : MPEG-4 Visual
    Профиль формата : Advanced Simple@L5
    Параметр BVOP формата : 1
    Параметр QPel формата : Нет
    Параметр GMC формата : Без точки перехода
    Параметр матрицы формата : Выборочная
    Идентификатор кодека : XVID
    Идентификатор кодека/Подсказка : XviD
    Продолжительность : 1 ч. 55 м.
    Битрейт : 771 Кбит/сек
    Ширина : 688 пикселей
    Высота : 288 пикселей
    Соотношение сторон : 2,40:1
    Частота кадров : 23,976 кадра/сек
    Цветовое пространство : YUV
    Субдискретизация насыщенности : 4:2:0
    Битовая глубина : 8 бит
    Тип развёртки : Прогрессивная
    Метод сжатия : С потерями
    Бит/(Пиксели*Кадры) : 0.162
    Размер потока : 637 Мбайт (85%)
    Библиотека кодирования : XviD 65
    Аудио
    Идентификатор : 1
    Формат : MPEG Audio
    Версия формата : Version 1
    Профиль формата : Layer 3
    Идентификатор кодека : 55
    Идентификатор кодека/Подсказка : MP3
    Продолжительность : 1 ч. 55 м.
    Вид битрейта : Постоянный
    Битрейт : 128 Кбит/сек
    Каналы : 2 канала
    Частота : 48,0 КГц
    Метод сжатия : С потерями
    Размер потока : 106 Мбайт (14%)
    Выравнивание : Соединение по промежуткам
    Продолжительность промежутка : 42 мс. (1,00 видеокадр)
    Время предзагрузки промежутка : 504 мс.

    Скриншоты

    Скачать .torrent

    Скачать торрент-файл бесплатно и на максимальной скорости!

    Как скачивать? · Что такое торрент? · Рейтинг и ограничения

    !ВНИМАНИЕ!
    Сайт не распространяет и не хранит электронные версии произведений, а занимается лишь лишь предоставлением доступа к создаваемому пользователями каталогу ссылок на торрент-файлы, которые содержат только списки хеш-сумм, убедительная просьба с жалобами обращаться напрямую к пользователю. Файлы для обмена на трекере предоставлены пользователями сайта, и администрация не несёт ответственности за их содержание. Просьба не заливать файлы, защищенные авторскими правами, а также файлы нелегального содержания!


    _________________
    [Профиль] [ЛС]
    Показать сообщения:    
    Ответить на тему

    Текущее время: Сегодня, в 18:43

    Часовой пояс: GMT + 2



    Вы не можете начинать темы
    Вы не можете отвечать на сообщения
    Вы не можете редактировать свои сообщения
    Вы не можете удалять свои сообщения
    Вы не можете голосовать в опросах
    Вы не можете прикреплять файлы к сообщениям
    Вы не можете скачивать файлы