BitTorrentTracker PerecTracker.org
BitTorrentTracker PerecTracker.org
    
Регистрация  ·  Вход
 
 · 
Забыли пароль?

  • 247 градусов по Фаренгейту / 247°F / 247 Degrees Fahrenheit (Леван Бакия / Levan Bakhia, Бека Джгубурия / Beqa Jguburia) [2011, США, Грузия, ужасы, триллер, BDRemux 1080p] VO (den904) + Original (Eng) + Commentary (Eng) + Sub (Rus, Eng)

    Ответить на тему
     
    Автор Сообщение

    Flirldrerve

    Создавать темы 29-Июл-2015 22:22

           

    [Цитировать]

    247 градусов по Фаренгейту / 247°F / 247 Degrees Fahrenheit
    Год выпуска: 2011
    Страна: США, Грузия
    Жанр: ужасы, триллер
    Продолжительность: 01:36:02
    Перевод: одноголосный закадровый (den904)
    Cубтитры: русские, английские
    Оригинальная аудиодорожка: английская
    Оглавление: 12 глав
    Режиссёр: Леван Бакия /Levan Bakhia/, Бека Джгубурия /Beqa Jguburia/
    В ролях: Скаут Тэйлор-Комптон /Scout Taylor-Compton/, Кристина Уллоа /Christina Ulloa/, Трэвис Ван Винкл /Travis Van Winkle/, Майкл Копон /Michael Copon/, Тайлер Мэйн /Tyler Mane/, Рене Эторе /Rene Etore/, Торнике Гогричиани /Tornike Gogrichiani/
    Описание:
    Четверо друзей отправляются в дом на берегу озера, чтобы весело провести выходные… Но уик-энд превращается в настоящий кошмар, когда трое из них оказываются запертыми в горячей сауне. Температура стремительно растёт… Каждая минута дорога в борьбе за выживание…
    Дополнительная информация:
    : 5.0/10 (3,824 votes)
    : 5.214 (2828 голосов)
    Качество: BDRemux (исходник: 247°F 2011 1080p Blu-ray AVC TrueHD 5.1-tater44-BluRG)
    Контейнер: MKV
    Видеопоток: 1920x1080p, 23.976 fps, H.264 ~24895 kbps
    Аудиопоток №1 (RUS): DD 5.1, 48 kHz, 448 kbps | одноголосный закадровый (den904)
    Аудиопоток №2 (ENG): DTS-HD MA 5.1, 48 kHz, 24 bit, ~3889 kbps (core: DTS 5.1, 48 kHz, 1509 kbps)
    Аудиопоток №3 (ENG): DD 2.0, 48 kHz, 192 kbps | комментарии режиссёра Левана Бакия
    Субтитры №1 (RUS): SRT/UTF8 | Janetta
    Субтитры №2 (ENG): SRT/UTF8 | SDH
    Сэмпл: Яндекс.Диск→, nekaka→, sendspace→

    MediaInfo

    General
    Unique ID                                : 211737159920760486934923587098325210319 (0x9F4B17FA4DE50A529D63E97B6566D4CF)
    Complete name                            : 247F.2011.1080p.BDRemux.H264.DD.DTSMA.SRT.mkv
    Format                                   : Matroska
    Format version                           : Version 4 / Version 2
    File size                                : 18.0 GiB
    Duration                                 : 1h 27mn
    Overall bit rate mode                    : Variable
    Overall bit rate                         : 29.4 Mbps
    Movie name                               : 247°F (2011) BDRemux
    Encoded date                             : UTC 2015-07-28 04:30:23
    Writing application                      : mkvmerge v7.8.0 ('River Man') 64bit built on Mar 27 2015 16:31:37
    Writing library                          : libebml v1.3.1 + libmatroska v1.4.2
    DURATION                                 : 01:21:58.290000000
    NUMBER_OF_FRAMES                         : 1093
    NUMBER_OF_BYTES                          : 59886
    _STATISTICS_WRITING_APP                  : mkvmerge v7.8.0 ('River Man') 64bit built on Mar 27 2015 16:31:37
    _STATISTICS_WRITING_DATE_UTC             : 2015-07-28 04:30:23
    _STATISTICS_TAGS                         : BPS DURATION NUMBER_OF_FRAMES NUMBER_OF_BYTES
    Video
    ID                                       : 1
    Format                                   : AVC
    Format/Info                              : Advanced Video Codec
    Format profile                           : High@L4.1
    Format settings, CABAC                   : Yes
    Format settings, ReFrames                : 2 frames
    Codec ID                                 : V_MPEG4/ISO/AVC
    Duration                                 : 1h 27mn
    Bit rate mode                            : Variable
    Width                                    : 1 920 pixels
    Height                                   : 1 080 pixels
    Display aspect ratio                     : 16:9
    Frame rate mode                          : Constant
    Frame rate                               : 23.976 fps
    Color space                              : YUV
    Chroma subsampling                       : 4:2:0
    Bit depth                                : 8 bits
    Scan type                                : Progressive
    Title                                    : 1920x1080, 23.976 fps, H.264 ~24895 kbps
    Language                                 : English
    Default                                  : Yes
    Forced                                   : No
    Audio #1
    ID                                       : 2
    Format                                   : AC-3
    Format/Info                              : Audio Coding 3
    Mode extension                           : CM (complete main)
    Format settings, Endianness              : Big
    Codec ID                                 : A_AC3
    Duration                                 : 1h 27mn
    Bit rate mode                            : Constant
    Bit rate                                 : 448 Kbps
    Channel(s)                               : 6 channels
    Channel positions                        : Front: L C R, Side: L R, LFE
    Sampling rate                            : 48.0 KHz
    Bit depth                                : 16 bits
    Compression mode                         : Lossy
    Stream size                              : 281 MiB (2%)
    Title                                    : RUS VO den904 DD 5.1, 48 kHz, 448 kbps
    Language                                 : Russian
    Default                                  : Yes
    Forced                                   : No
    Audio #2
    ID                                       : 3
    Format                                   : DTS
    Format/Info                              : Digital Theater Systems
    Format profile                           : MA / Core
    Mode                                     : 16
    Format settings, Endianness              : Big
    Codec ID                                 : A_DTS
    Duration                                 : 1h 27mn
    Bit rate mode                            : Variable
    Bit rate                                 : Unknown / 1 509 Kbps
    Channel(s)                               : 6 channels
    Channel positions                        : Front: L C R, Side: L R, LFE
    Sampling rate                            : 48.0 KHz
    Bit depth                                : 24 bits
    Compression mode                         : Lossless / Lossy
    Title                                    : ENG DTS-HD MA 5.1, 48 kHz, 24 bit, ~3889 kbps
    Language                                 : English
    Default                                  : No
    Forced                                   : No
    Audio #3
    ID                                       : 4
    Format                                   : AC-3
    Format/Info                              : Audio Coding 3
    Mode extension                           : CM (complete main)
    Format settings, Endianness              : Big
    Codec ID                                 : A_AC3
    Duration                                 : 1h 27mn
    Bit rate mode                            : Constant
    Bit rate                                 : 192 Kbps
    Channel(s)                               : 2 channels
    Channel positions                        : Front: L R
    Sampling rate                            : 48.0 KHz
    Bit depth                                : 16 bits
    Compression mode                         : Lossy
    Stream size                              : 120 MiB (1%)
    Title                                    : ENG Commentary DD 2.0, 48 kHz, 192 kbps
    Language                                 : English
    Default                                  : No
    Forced                                   : No
    Text #1
    ID                                       : 5
    Format                                   : UTF-8
    Codec ID                                 : S_TEXT/UTF8
    Codec ID/Info                            : UTF-8 Plain Text
    Title                                    : RUS Janetta SRT
    Language                                 : Russian
    Default                                  : No
    Forced                                   : No
    Text #2
    ID                                       : 6
    Format                                   : UTF-8
    Codec ID                                 : S_TEXT/UTF8
    Codec ID/Info                            : UTF-8 Plain Text
    Title                                    : ENG SDH SRT
    Language                                 : English
    Default                                  : No
    Forced                                   : No
    Menu
    00:00:00.000                             : en:Chapter 1
    00:07:19.814                             : en:Chapter 2
    00:13:50.204                             : en:Chapter 3
    00:19:55.694                             : en:Chapter 4
    00:28:10.772                             : en:Chapter 5
    00:36:32.315                             : en:Chapter 6
    00:44:03.933                             : en:Chapter 7
    00:49:43.814                             : en:Chapter 8
    00:56:30.137                             : en:Chapter 9
    01:03:31.057                             : en:Chapter 10
    01:12:34.600                             : en:Chapter 11
    01:22:40.164                             : en:Chapter 12

    Скриншоты


    Скачать .torrent

    Скачать торрент-файл бесплатно и на максимальной скорости!

    Как скачивать? · Что такое торрент? · Рейтинг и ограничения

    !ВНИМАНИЕ!
    Сайт не распространяет и не хранит электронные версии произведений, а занимается лишь лишь предоставлением доступа к создаваемому пользователями каталогу ссылок на торрент-файлы, которые содержат только списки хеш-сумм, убедительная просьба с жалобами обращаться напрямую к пользователю. Файлы для обмена на трекере предоставлены пользователями сайта, и администрация не несёт ответственности за их содержание. Просьба не заливать файлы, защищенные авторскими правами, а также файлы нелегального содержания!


    _________________
    [Профиль] [ЛС]
    Показать сообщения:    
    Ответить на тему

    Текущее время: Сегодня, в 19:19

    Часовой пояс: GMT + 2



    Вы не можете начинать темы
    Вы не можете отвечать на сообщения
    Вы не можете редактировать свои сообщения
    Вы не можете удалять свои сообщения
    Вы не можете голосовать в опросах
    Вы не можете прикреплять файлы к сообщениям
    Вы не можете скачивать файлы