BitTorrentTracker PerecTracker.org
BitTorrentTracker PerecTracker.org
    
Регистрация  ·  Вход
 
 · 
Забыли пароль?

  • Крепись! / Get Hard (Этан Коэн / Etan Cohen) [2015, США, Комедия, криминал, WEB-DL, HD (720p)] MVO + Original + sub (rus)

    Ответить на тему
     
    Автор Сообщение

    rechyn

    Создавать темы 29-Июл-2015 22:22

           

    [Цитировать]

    Крепись! / Get Hard
    «An education in incarceration»
    5.748 / 10 6.10 / 10
    -Год выпуска: 2015
    Страна: США
    Жанр: Комедия, криминал
    Продолжительность: 01:40:15
    Перевод: Многоголосый закадровый (iTunes)
    Оригинальная аудиодорожка: Есть
    Cубтитры: Русские форсированные, Русские
    Режиссёр: Этан Коэн
    Сценарий: Джей Мартел, Йен Робертс, Этан Коэн
    Продюсер: Уилл Феррелл, Крис Хенчи, Адам МакКей
    Оператор: Тим Зурштедт
    Композитор: Кристоф Бек
    Художник: Мехер Ахмад, Келли Керли, Бретт МакКензи
    Монтаж: Майкл Л. Сейл
    В ролях: Уилл Феррелл, Кевин Харт, Крэйг Т. Нельсон, Элисон Бри, Эдвина Финдли, Ариана Нил, Эрик Чаварриа, Ти-Ай, Пол Бен-Виктор, Джон Майер
    Бюджет: $40 000 000
    Сборы в США: $90 411 453
    Сборы в мире: + $15 700 000 = $106 111 453
    Мировая премьера: 16 марта 2015, «CP Дистрибуция»
    Релиз на DVD: 30 июля 2015, «CP Дистрибуция»
    Релиз на Blu-Ray: 30 июля 2015
    Описание: Богатый менеджер инвестиционного банка осуждён за преступление, которого он не совершал, и готовится к тюрьме. А помогает ему в этом парень, который моет его машину.-Качество исходника: WEB-DL 720p (HDClub)
    Качество: WEB-DL
    Тип: HD (720p)
    Контейнер: M4V
    Видео: H.264, 1280x718, 16:9, 3 973 Kbps, 23.976 fps
    Аудио 1: Русский/Многоголосый закадровый (iTunes), AAC / 2.0 / 155 Kbps / 48.0 KHz
    Аудио 2: Английский/Оригинальная дорожка , AAC / 2.0 / 149 Kbps / 48.0 KHz
    Аудио 3: Русский/Многоголосый закадровый (iTunes), AC-3 / 5.1 / 384 Kbps / 48.0 KHz
    Субтитры 1: Русские форсированные
    Субтитры 2: Русские полные
    -

    iTunes Meta Tags

    Sort Name: Get Hard
    XID: Apple:vendor_id:2015-722860
    contentID: 973295061
    Copyright: © 2015 Warner Bros. Entertainment Inc. and Ratpac-Dune Entertainment LLC. All Rights Reserved.
    Screenwriters: Джей Мартел, Йен Робертс, Этан Коэн
    Producers: Уилл Феррелл, Крис Хенчи, Адам МакКей
    Director: Этан Коэн
    Cast: Уилл Феррелл, Кевин Харт, Крэйг Т. Нельсон, Элисон Бри, Эдвина Финдли, Ариана Нил, Эрик Чаварриа, Ти-Ай, Пол Бен-Виктор, Джон Майер
    Studio: Warner Bros.
    Rating: 11
    Long Description: Богатый менеджер инвестиционного банка осуждён за преступление, которого он не совершал, и готовится к тюрьме. А помогает ему в этом парень, который моет его машину.
    Description: Богатый менеджер инвестиционного банка осуждён за преступление, которого он не совершал, и готовится к тюрьме. А помогает ему в этом парень, который моет его машину.
    Release Date: 2015-03-16T08:00:00Z
    Genre: Comedy
    Artist: Etan Cohen
    Name: Get Hard

    MediaInfo

    General
    Complete name                            : /Users/imac/HandBrake/Get.Hard.720p.WEB-DL.m4v
    Format                                   : MPEG-4
    Codec ID                                 : M4V
    File size                                : 3.27 GiB
    Duration                                 : 1h 40mn
    Overall bit rate mode                    : Variable
    Overall bit rate                         : 4 669 Kbps
    Movie name                               : Get Hard
    Performer                                : Etan Cohen
    Genre                                    : Comedy
    Recorded date                            : UTC 2015-03-16 08:00:00
    Encoded date                             : UTC 2015-07-29 10:33:28
    Tagged date                              : UTC 2015-07-29 10:34:37
    Copyright                                : © 2015 Warner Bros. Entertainment Inc. and Ratpac-Dune Entertainment LLC. All Rights Reserved.
    Cover                                    : Yes
    sonm                                     : Get Hard
    desc                                     : Богатый менеджер инвестиционного банка осуждён за преступление, которого он не совершал, и готовится к тюрьме. А помогает ему в этом парень, который моет его машину.
    ldes                                     : Богатый менеджер инвестиционного банка осуждён за преступление, которого он не совершал, и готовится к тюрьме. А помогает ему в этом парень, который моет его машину.
    hdvd                                     : 1
    stik                                     : 9
    rtng                                     : 0
    cnID                                     : 973295061
    xid                                      : Apple:vendor_id:2015-722860
    iTunEXTC                                 : mpaa|R|400|
    iTunMOVI                                 : <?xml version=\"1.0\" encoding=\"UTF-8\"?> / <!DOCTYPE plist PUBLIC \"-//Apple//DTD PLIST 1.0//EN\" \"http://anonym.to/?http://www.apple.com/DTDs/PropertyList-1.0.dtd\"> / <plist version=\"1.0\"> / <dict> /  <key>cast</key> /  <array> /   <dict> /    <key>name</key> /    <string>Уилл Феррелл</string> /   </dict> /   <dict> /    <key>name</key> /    <string>Кевин Харт</string> /   </dict> /   <dict> /    <key>name</key> /    <string>Крэйг Т. Нельсон</string> /   </dict> /   <dict> /    <key>name</key> /    <string>Элисон Бри</string> /   </dict> /   <dict> /    <key>name</key> /    <string>Эдвина Финдли</string> /   </dict> /   <dict> /    <key>name</key> /    <string>Ариана Нил</string> /   </dict> /   <dict> /    <key>name</key> /    <string>Эрик Чаварриа</string> /   </dict> /   <dict> /    <key>name</key> /    <string>Ти-Ай</string> /   </dict> /   <dict> /    <key>name</key> /    <string>Пол Бен-Виктор</string> /   </dict> /   <dict> /    <key>name</key> /    <string>Джон Майер</string> /   </dict> /  </array> /  <key>directors</key> /  <array> /   <dict> /    <key>name</key> /    <string>Этан Коэн</string> /   </dict> /  </array> /  <key>producers</key> /  <array> /   <dict> /    <key>name</key> /    <string>Уилл Феррелл</string> /   </dict> /   <dict> /    <key>name</key> /    <string>Крис Хенчи</string> /   </dict> /   <dict> /    <key>name</key> /    <string>Адам МакКей</string> /   </dict> /  </array> /  <key>screenwriters</key> /  <array> /   <dict> /    <key>name</key> /    <string>Джей Мартел</string> /   </dict> /   <dict> /    <key>name</key> /    <string>Йен Робертс</string> /   </dict> /   <dict> /    <key>name</key> /    <string>Этан Коэн</string> /   </dict> /  </array> /  <key>studio</key> /  <string>Warner Bros.</string> / </dict> / </plist>
    Video #1
    ID                                       : 1
    Format                                   : AVC
    Format/Info                              : Advanced Video Codec
    Format profile                           : High@L3.1
    Format settings, CABAC                   : No
    Format settings, ReFrames                : 2 frames
    Codec ID                                 : avc1
    Codec ID/Info                            : Advanced Video Coding
    Duration                                 : 1h 40mn
    Bit rate mode                            : Variable
    Bit rate                                 : 3 973 Kbps
    Width                                    : 1 280 pixels
    Height                                   : 718 pixels
    Display aspect ratio                     : 16:9
    Frame rate mode                          : Constant
    Frame rate                               : 23.976 fps
    Color space                              : YUV
    Chroma subsampling                       : 4:2:0
    Bit depth                                : 8 bits
    Scan type                                : Progressive
    Bits/(Pixel*Frame)                       : 0.180
    Stream size                              : 2.78 GiB (85%)
    Language                                 : English
    Encoded date                             : UTC 2015-07-29 10:33:28
    Tagged date                              : UTC 2015-07-29 10:33:44
    Color primaries                          : BT.709-5, BT.1361, IEC 61966-2-4, SMPTE RP177
    Transfer characteristics                 : BT.709-5, BT.1361
    Matrix coefficients                      : BT.709-5, BT.1361, IEC 61966-2-4 709, SMPTE RP177
    Video #2
    ID                                       : 8
    Format                                   : JPEG
    Codec ID                                 : jpeg
    Duration                                 : 1h 40mn
    Bit rate mode                            : Variable
    Bit rate                                 : 1 123 bps
    Width                                    : 640 pixels
    Height                                   : 359 pixels
    Display aspect ratio                     : 16:9
    Frame rate mode                          : Variable
    Frame rate                               : 0.002 fps
    Minimum frame rate                       : 0.001 fps
    Maximum frame rate                       : 0.005 fps
    Color space                              : YUV
    Chroma subsampling                       : 4:2:0
    Bit depth                                : 8 bits
    Compression mode                         : Lossy
    Bits/(Pixel*Frame)                       : 2.444
    Stream size                              : 754 KiB (0%)
    Language                                 : English
    Encoded date                             : UTC 2015-07-29 10:33:49
    Tagged date                              : UTC 2015-07-29 10:33:49
    Audio #1
    ID                                       : 2
    Format                                   : AAC
    Format/Info                              : Advanced Audio Codec
    Format profile                           : LC
    Codec ID                                 : 40
    Duration                                 : 1h 40mn
    Bit rate mode                            : Variable
    Bit rate                                 : 155 Kbps
    Maximum bit rate                         : 252 Kbps
    Channel(s)                               : 2 channels
    Channel positions                        : Front: L R
    Sampling rate                            : 48.0 KHz
    Compression mode                         : Lossy
    Stream size                              : 111 MiB (3%)
    Language                                 : Russian
    Encoded date                             : UTC 2015-07-29 10:33:28
    Tagged date                              : UTC 2015-07-29 10:33:46
    Audio #2
    ID                                       : 3
    Format                                   : AAC
    Format/Info                              : Advanced Audio Codec
    Format profile                           : LC
    Codec ID                                 : 40
    Duration                                 : 1h 40mn
    Bit rate mode                            : Variable
    Bit rate                                 : 149 Kbps
    Maximum bit rate                         : 273 Kbps
    Channel(s)                               : 2 channels
    Channel positions                        : Front: L R
    Sampling rate                            : 48.0 KHz
    Compression mode                         : Lossy
    Stream size                              : 107 MiB (3%)
    Language                                 : English
    Encoded date                             : UTC 2015-07-29 10:33:28
    Tagged date                              : UTC 2015-07-29 10:33:46
    Audio #3
    ID                                       : 4
    Format                                   : AC-3
    Format/Info                              : Audio Coding 3
    Mode extension                           : CM (complete main)
    Format settings, Endianness              : Big
    Codec ID                                 : ac-3
    Duration                                 : 1h 40mn
    Bit rate mode                            : Constant
    Bit rate                                 : 384 Kbps
    Channel(s)                               : 6 channels
    Channel positions                        : Front: L C R, Side: L R, LFE
    Sampling rate                            : 48.0 KHz
    Bit depth                                : 16 bits
    Compression mode                         : Lossy
    Stream size                              : 275 MiB (8%)
    Language                                 : Russian
    Encoded date                             : UTC 2015-07-29 10:33:28
    Tagged date                              : UTC 2015-07-29 10:33:45
    Text #1
    ID                                       : 5
    Format                                   : Timed text
    Muxing mode                              : sbtl
    Codec ID                                 : tx3g
    Duration                                 : 1h 40mn
    Bit rate mode                            : Variable
    Bit rate                                 : 3 bps
    Stream size                              : 1.88 KiB (0%)
    Language                                 : Russian
    Encoded date                             : UTC 2015-07-29 10:33:28
    Tagged date                              : UTC 2015-07-29 10:33:28
    Text #2
    ID                                       : 6
    Format                                   : Timed text
    Muxing mode                              : sbtl
    Codec ID                                 : tx3g
    Duration                                 : 1h 40mn
    Bit rate mode                            : Variable
    Bit rate                                 : 135 bps
    Stream size                              : 98.9 KiB (0%)
    Language                                 : Russian
    Encoded date                             : UTC 2015-07-29 10:33:28
    Tagged date                              : UTC 2015-07-29 10:33:29
    Text #3
    ID                                       : 7
    Format                                   : Apple text
    Codec ID                                 : text
    Duration                                 : 1h 40mn
    Bit rate mode                            : Variable
    Bit rate                                 : 0 bps
    Stream size                              : 167 Bytes (0%)
    Language                                 : English
    Encoded date                             : UTC 2015-07-29 10:33:46
    Tagged date                              : UTC 2015-07-29 10:33:46
    Menu
    00:00:00.000                             : 1
    00:11:30.000                             : 2
    00:20:52.000                             : 3
    00:28:41.000                             : 4
    00:40:56.000                             : 5
    00:50:52.000                             : 6
    01:00:05.000                             : 7
    01:09:33.000                             : 8
    01:19:08.000                             : 9
    01:31:29.000                             : 10
    01:36:35.000                             : 11

    Скриншоты

    -

    Релиз подготовлен для просмотра на Apple TV, iPad, iPhone, iPod Touch.
    Для просмотра данного релиза на компьютере с ОС Windows рекомендуется использовать VLC media player
    Скачать .torrent

    Скачать торрент-файл бесплатно и на максимальной скорости!

    Как скачивать? · Что такое торрент? · Рейтинг и ограничения

    !ВНИМАНИЕ!
    Сайт не распространяет и не хранит электронные версии произведений, а занимается лишь лишь предоставлением доступа к создаваемому пользователями каталогу ссылок на торрент-файлы, которые содержат только списки хеш-сумм, убедительная просьба с жалобами обращаться напрямую к пользователю. Файлы для обмена на трекере предоставлены пользователями сайта, и администрация не несёт ответственности за их содержание. Просьба не заливать файлы, защищенные авторскими правами, а также файлы нелегального содержания!


    _________________
    [Профиль] [ЛС]
    Показать сообщения:    
    Ответить на тему

    Текущее время: Сегодня, в 08:51

    Часовой пояс: GMT + 2



    Вы не можете начинать темы
    Вы не можете отвечать на сообщения
    Вы не можете редактировать свои сообщения
    Вы не можете удалять свои сообщения
    Вы не можете голосовать в опросах
    Вы не можете прикреплять файлы к сообщениям
    Вы не можете скачивать файлы