BitTorrentTracker PerecTracker.org
BitTorrentTracker PerecTracker.org
    
Регистрация  ·  Вход
 
 · 
Забыли пароль?

  • Приложение / I-Lived (Франк Халфун / Franck Khalfoun) [2015, США, триллер, детектив, HDRip] MVO

    Ответить на тему
     
    Автор Сообщение

    rechyn

    Создавать темы 29-Июл-2015 13:58

           

    [Цитировать]

    Приложение / I-Lived
    Страна: США
    Жанр: триллер, детектив
    Год выпуска: 2015
    Продолжительность: 01:36:36
    Перевод: Любительский (многоголосый закадровый)
    Cубтитры: нет
    Оригинальная аудиодорожка: нет
    Режиссер: Франк Халфун / Franck Khalfoun
    В ролях: Джеремия Воткинс, Сара Пауэр, Крис Мена, Ник, Д`Авирро, Джен Броберг, Элейн Партнау, Луис Фернандес-Хиль, Брайен Брейтер
    Описание: Однажды интернет-блоггеру Джошу, который специализируется на детальных обзорах различных мобильных приложений, предлагают попробовать очередную программу, особо плотную связанную с реальностью. Парень соглашается. Задача состоит в том, чтобы выполнять определенные задания, но в настоящей жизни, а не в виртуальном пространстве. После удачного отчета на счет пользователя поступают баллы для конечной оценки результата работы. Сначала смартфон выдает Джошу банальные и легко выполнимые задачи. К примеру, правильно питаться целый день и быть вежливым с окружающими. Затем под чутким руководством электронного гаджета главный герой начинает развивать такое умение как ловкость, и такое свойство характера, как упорство. Постепенно к Джошу приходит понимание того, что его жизнь стала лучше, наладились отношения с девушкой и с семьей, да и карьера однозначно пошла в рост. Но в этот момент коварное приложение начинает давать аморальные и провокационные задания, направленные на причинение вреда. В этот момент Джош с ужасом осознает, что азарт в игре стал для него так велик, что он не в состоянии отказаться от требований программы…
    Сэмпл: http://sendfile.su/1141311

    Качество видео: HDRip
    Формат видео: AVI
    Видео: XviD, 720x400, 16:9, 23,976 кадра/сек, 1461 Кбит/сек
    Аудио: ас3, 48,0 КГц, 384 Кбит/сек, 6 каналов

    MediaInfo

    Общее
    Полное имя : D:\kino\I-Lived.2015.avi
    Формат : AVI
    Формат/Информация : Audio Video Interleave
    Размер файла : 1,25 Гбайт
    Продолжительность : 1 ч. 36 м.
    Общий поток : 1855 Кбит/сек
    Название фильма : RARBG.COM - I-Lived.2015.WEB-DL.XviD.AC3-RARBG
    Программа кодирования : VirtualDubMod 1.5.10.2 (build 2540/release)
    Библиотека кодирования : VirtualDubMod build 2540/release
    Примечание : RARBG.COM - I-Lived.2015.WEB-DL.XviD.AC3-RARBG
    Видео
    Идентификатор : 0
    Формат : MPEG-4 Visual
    Профиль формата : Simple@L5
    Параметр BVOP формата : Нет
    Параметр QPel формата : Нет
    Параметр GMC формата : Без точки перехода
    Параметр матрицы формата : Default (H.263)
    Идентификатор кодека : XVID
    Идентификатор кодека/Подсказка : XviD
    Продолжительность : 1 ч. 36 м.
    Битрейт : 1461 Кбит/сек
    Ширина : 720 пикселей
    Высота : 400 пикселей
    Соотношение сторон : 16:9
    Частота кадров : 23,976 кадра/сек
    Цветовое пространство : YUV
    Субдискретизация насыщенности : 4:2:0
    Битовая глубина : 8 бит
    Тип развёртки : Прогрессивная
    Метод сжатия : С потерями
    Бит/(Пиксели*Кадры) : 0.212
    Размер потока : 1010 Мбайт (79%)
    Библиотека кодирования : Lavc56.20.100
    Аудио
    Идентификатор : 1
    Формат : AC-3
    Формат/Информация : Audio Coding 3
    Расширение режима : CM (complete main)
    Параметр Endianness формата : Big
    Идентификатор кодека : 2000
    Продолжительность : 1 ч. 36 м.
    Вид битрейта : Постоянный
    Битрейт : 384 Кбит/сек
    Каналы : 6 каналов
    Расположение каналов : Front: L C R, Side: L R, LFE
    Частота : 48,0 КГц
    Битовая глубина : 16 бит
    Метод сжатия : С потерями
    Размер потока : 265 Мбайт (21%)
    Выравнивание : Разделение по промежуткам
    Продолжительность промежутка : 42 мс. (1,00 видеокадр)
    Время предзагрузки промежутка : 500 мс.
    Заголовок : Русская.MVO.Blithe@fazerevil@qwerty

    Скриншот c названием фильма

    Скриншоты




    Скачать .torrent

    Скачать торрент-файл бесплатно и на максимальной скорости!

    Как скачивать? · Что такое торрент? · Рейтинг и ограничения

    !ВНИМАНИЕ!
    Сайт не распространяет и не хранит электронные версии произведений, а занимается лишь лишь предоставлением доступа к создаваемому пользователями каталогу ссылок на торрент-файлы, которые содержат только списки хеш-сумм, убедительная просьба с жалобами обращаться напрямую к пользователю. Файлы для обмена на трекере предоставлены пользователями сайта, и администрация не несёт ответственности за их содержание. Просьба не заливать файлы, защищенные авторскими правами, а также файлы нелегального содержания!


    _________________
    [Профиль] [ЛС]
    Показать сообщения:    
    Ответить на тему

    Текущее время: Сегодня, в 04:08

    Часовой пояс: GMT + 2



    Вы не можете начинать темы
    Вы не можете отвечать на сообщения
    Вы не можете редактировать свои сообщения
    Вы не можете удалять свои сообщения
    Вы не можете голосовать в опросах
    Вы не можете прикреплять файлы к сообщениям
    Вы не можете скачивать файлы