BitTorrentTracker PerecTracker.org
BitTorrentTracker PerecTracker.org
    
Регистрация  ·  Вход
 
 · 
Забыли пароль?

  • Гнездо землеройки / Землеройка / Musaranas (Хуан Фернандо Андрес / Juanfer Andrés, Эстебан Роэль / Esteban Roel) [2014, Испания, Франция, триллер, драма, DVDRip-AVC] VO (LetEatBee)

    Ответить на тему
     
    Автор Сообщение

    Light

    Создавать темы 28-Июл-2015 21:10

           

    [Цитировать]

    Гнездо землеройки / Землеройка / MusaranasСтрана: Испания, Франция
    Жанр: триллер, драма
    Год выпуска: 2014
    Продолжительность: 01:27:43
    Перевод: Одноголосый закадровый LetEatBee по субтитрам Инны Кибец, Оксаны Мальцевой (Группа ВК "Уго Сильва")
    Cубтитры: нет
    Режиссер: Хуан Фернандо Андрес / Juanfer Andrés, Эстебан Роэль / Esteban Roel
    В ролях: Уго Сильва, Макарена Гомес, Надя Де Сантьяго, Луис Тосар, Грасия Олайо, Лусия Гонсалес, Каролина Банг, Томас дел Эстал, Хесус Анхель Кастродеса, Асьер Эчеандиа
    Описание: Испания, 1950-е.
    Агорафобия (боязнь открытого пространства) не дает Монсе покинуть квартиру в Мадриде и ее единственной связью с реальностью является младшая сестра, на воспитание которой она потратила всю свою молодость. Но в один прекрасный день к ним заходит молодой сосед Карлос…
    Сэмпл: https://yadi.sk/d/COceGhz8i5nng
    Качество видео: DVDRip-AVC
    Формат видео: MKV
    Видео: 704x272 (2.59:1), 25 fps, XviD build 47 ~1798 kbps avg, 0.38 bit/pixel
    Аудио: 48 kHz, AC3 Dolby Digital, 3/2 (L,C,R,l,r) + LFE ch, ~448 kbps

    MediaInfo

    General
    Unique ID : 249940796900454145535553375095348032416 (0xBC08D8B4B67D8A7B8765416FB26073A0)
    Complete name : S:\VIDEO\Musaranas_rus.mkv
    Format : Matroska
    Format version : Version 4 / Version 2
    File size : 1.38 GiB
    Duration : 1h 27mn
    Overall bit rate : 2 248 Kbps
    Encoded date : UTC 2015-07-26 07:23:19
    Writing application : mkvmerge v8.2.0 ('World of Adventure') 64bit
    Writing library : libebml v1.3.1 + libmatroska v1.4.2
    DURATION : 01:27:43.080000000
    NUMBER_OF_FRAMES : 131577
    NUMBER_OF_BYTES : 1183342514
    _STATISTICS_WRITING_APP : mkvmerge v8.2.0 ('World of Adventure') 64bit
    _STATISTICS_WRITING_DATE_UTC : 2015-07-26 07:23:19
    _STATISTICS_TAGS : BPS DURATION NUMBER_OF_FRAMES NUMBER_OF_BYTES
    Video
    ID : 2
    Format : MPEG-4 Visual
    Format profile : Advanced Simple@L5
    Format settings, BVOP : 1
    Format settings, QPel : No
    Format settings, GMC : No warppoints
    Format settings, Matrix : Default (MPEG)
    Codec ID : V_MS/VFW/FOURCC / XVID
    Codec ID/Hint : XviD
    Duration : 1h 27mn
    Bit rate : 1 756 Kbps
    Width : 704 pixels
    Height : 272 pixels
    Display aspect ratio : 2.588
    Frame rate mode : Constant
    Frame rate : 25.000 fps
    Color space : YUV
    Chroma subsampling : 4:2:0
    Bit depth : 8 bits
    Scan type : Progressive
    Compression mode : Lossy
    Bits/(Pixel*Frame) : 0.367
    Stream size : 1.08 GiB (78%)
    Writing library : XviD 1.2.0.dev47 (UTC 2006-11-01)
    Default : Yes
    Forced : No
    Audio
    ID : 1
    Format : AC-3
    Format/Info : Audio Coding 3
    Mode extension : CM (complete main)
    Format settings, Endianness : Big
    Codec ID : A_AC3
    Duration : 1h 27mn
    Bit rate mode : Constant
    Bit rate : 448 Kbps
    Channel(s) : 6 channels
    Channel positions : Front: L C R, Side: L R, LFE
    Sampling rate : 48.0 KHz
    Bit depth : 16 bits
    Compression mode : Lossy
    Stream size : 281 MiB (20%)
    Default : Yes
    Forced : No

    Скриншот c названием фильма

    Скриншоты






    Скачать .torrent

    Скачать торрент-файл бесплатно и на максимальной скорости!

    Как скачивать? · Что такое торрент? · Рейтинг и ограничения

    !ВНИМАНИЕ!
    Сайт не распространяет и не хранит электронные версии произведений, а занимается лишь лишь предоставлением доступа к создаваемому пользователями каталогу ссылок на торрент-файлы, которые содержат только списки хеш-сумм, убедительная просьба с жалобами обращаться напрямую к пользователю. Файлы для обмена на трекере предоставлены пользователями сайта, и администрация не несёт ответственности за их содержание. Просьба не заливать файлы, защищенные авторскими правами, а также файлы нелегального содержания!


    _________________
    [Профиль] [ЛС]
    Показать сообщения:    
    Ответить на тему

    Текущее время: Сегодня, в 20:24

    Часовой пояс: GMT + 2



    Вы не можете начинать темы
    Вы не можете отвечать на сообщения
    Вы не можете редактировать свои сообщения
    Вы не можете удалять свои сообщения
    Вы не можете голосовать в опросах
    Вы не можете прикреплять файлы к сообщениям
    Вы не можете скачивать файлы