Register  ·  Log in
Forgot password?

  • Гнездо землеройки / Землеройка / Musaranas (Хуан Фернандо Андрес / Juanfer Andrés, Эстебан Роэль / Esteban Roel) [2014, Испания, Франция, триллер, драма, DVDRip-AVC] VO (LetEatBee)

    Reply to topic
    Author Message


    Post 28-Jul-2015 22:10



    Гнездо землеройки / Землеройка / MusaranasСтрана: Испания, Франция
    Жанр: триллер, драма
    Год выпуска: 2014
    Продолжительность: 01:27:43
    Перевод: Одноголосый закадровый LetEatBee по субтитрам Инны Кибец, Оксаны Мальцевой (Группа ВК "Уго Сильва")
    Cубтитры: нет
    Режиссер: Хуан Фернандо Андрес / Juanfer Andrés, Эстебан Роэль / Esteban Roel
    В ролях: Уго Сильва, Макарена Гомес, Надя Де Сантьяго, Луис Тосар, Грасия Олайо, Лусия Гонсалес, Каролина Банг, Томас дел Эстал, Хесус Анхель Кастродеса, Асьер Эчеандиа
    Описание: Испания, 1950-е.
    Агорафобия (боязнь открытого пространства) не дает Монсе покинуть квартиру в Мадриде и ее единственной связью с реальностью является младшая сестра, на воспитание которой она потратила всю свою молодость. Но в один прекрасный день к ним заходит молодой сосед Карлос…
    Качество видео: DVDRip-AVC
    Формат видео: MKV
    Видео: 704x272 (2.59:1), 25 fps, XviD build 47 ~1798 kbps avg, 0.38 bit/pixel
    Аудио: 48 kHz, AC3 Dolby Digital, 3/2 (L,C,R,l,r) + LFE ch, ~448 kbps


    Unique ID : 249940796900454145535553375095348032416 (0xBC08D8B4B67D8A7B8765416FB26073A0)
    Complete name : S:\VIDEO\Musaranas_rus.mkv
    Format : Matroska
    Format version : Version 4 / Version 2
    File size : 1.38 GiB
    Duration : 1h 27mn
    Overall bit rate : 2 248 Kbps
    Encoded date : UTC 2015-07-26 07:23:19
    Writing application : mkvmerge v8.2.0 ('World of Adventure') 64bit
    Writing library : libebml v1.3.1 + libmatroska v1.4.2
    DURATION : 01:27:43.080000000
    NUMBER_OF_FRAMES : 131577
    NUMBER_OF_BYTES : 1183342514
    _STATISTICS_WRITING_APP : mkvmerge v8.2.0 ('World of Adventure') 64bit
    _STATISTICS_WRITING_DATE_UTC : 2015-07-26 07:23:19
    ID : 2
    Format : MPEG-4 Visual
    Format profile : Advanced Simple@L5
    Format settings, BVOP : 1
    Format settings, QPel : No
    Format settings, GMC : No warppoints
    Format settings, Matrix : Default (MPEG)
    Codec ID/Hint : XviD
    Duration : 1h 27mn
    Bit rate : 1 756 Kbps
    Width : 704 pixels
    Height : 272 pixels
    Display aspect ratio : 2.588
    Frame rate mode : Constant
    Frame rate : 25.000 fps
    Color space : YUV
    Chroma subsampling : 4:2:0
    Bit depth : 8 bits
    Scan type : Progressive
    Compression mode : Lossy
    Bits/(Pixel*Frame) : 0.367
    Stream size : 1.08 GiB (78%)
    Writing library : XviD 1.2.0.dev47 (UTC 2006-11-01)
    Default : Yes
    Forced : No
    ID : 1
    Format : AC-3
    Format/Info : Audio Coding 3
    Mode extension : CM (complete main)
    Format settings, Endianness : Big
    Codec ID : A_AC3
    Duration : 1h 27mn
    Bit rate mode : Constant
    Bit rate : 448 Kbps
    Channel(s) : 6 channels
    Channel positions : Front: L C R, Side: L R, LFE
    Sampling rate : 48.0 KHz
    Bit depth : 16 bits
    Compression mode : Lossy
    Stream size : 281 MiB (20%)
    Default : Yes
    Forced : No

    Скриншот c названием фильма


    Download .torrent

    Download free and at maximum speed!

    How to Download? · What is a torrent? · Ratings and Limitations

    The site does not extend and does not store electronic(digital) versions of products, and only gives access to a reference catalogue created by users on torrent-files which contain only lists of the hash-sums, the earnest entreaty, with complaints(abuse) to access directly to the user. Files for an exchange on tracker are given by users of a site, and the administration does not bear the responsibility for their maintenance. The request to not fill in the files protected by copyrights, and also files of the illegal maintenance!

    [Profile] [PM]
    Display posts from previous:    
    Reply to topic

    The time now is: Today 07:30

    All times are GMT + 3 Hours

    You cannot post new topics in this forum
    You cannot reply to topics in this forum
    You cannot edit your posts in this forum
    You cannot delete your posts in this forum
    You cannot vote in polls in this forum
    You cannot attach files in this forum
    You cannot download files in this forum