BitTorrentTracker PerecTracker.org
BitTorrentTracker PerecTracker.org
    
Регистрация  ·  Вход
 
 · 
Забыли пароль?

  • Смитти / Smitty (Дэвид М. Эванс / David M. Evans) [2012, США, драма, семейный, BDRip] MVO (НТВ+) + Original (Eng)

    Ответить на тему
     
    Автор Сообщение

    Light

    Создавать темы 28-Июл-2015 21:10

           

    [Цитировать]

    -Смитти / Smitty--Страна: США |
    Жанр: драма, семейный
    Год выпуска: 2012
    Продолжительность: 01:34:11
    Перевод: Профессиональный (многоголосый закадровый) НТВ+
    Cубтитры: нет
    + Оригинальная звуковая дорожка [English] - отдельно--Режиссер: Дэвид М. Эванс / David M. Evans
    Сценарий: Майкл Ваумгартен / Michael Baumgarten
    Продюсер: Дэйзи Хэмилтон / Daisy Hamilton
    Оператор: Джэйсон Кроверс / Jayson Crothers--В ролях:
    Брэндон Тайлер Расселл (Ben), Фредди Джеймс (Smitty), Питер Фонда (Jack), Мира Сорвино (Amanda), Луис Госсет мл. (Mr. Smith), Джейсон Лондон (Russell), Лолита Давидович (Judge Greenstein), Бу Бу Стюарт (Peebo), Гэбриэлль Буи (Tia), Тори Вайз (Carl).--Описание:
    Вредного тринадцатилетнего пацана Бена посылают на всё лето в деревню к дедушке. Дед - упрямый старый простак, не очень рад видеть своего внука. Бен знакомится с собакой, которую выгнали из дома, потому что её прежние хозяева просто не могут позволить себе прокормить и поддержать домашнее животное. С помощью собаки Бен изучает важность дружбы, семьи и ответственности. И это лето станет самым незабываемым в его жизни.--Мировая премьера: 10 апреля 2012--Рейтинг
    kinopoisk.ru: 6.447 (120)

    MPAA: - рекомендуется присутствие родителей--Качество видео: BD-Rip | исх. « irrlicht / / 1080p. MPEG-4 AVC. BD-Remux »
    Формат видео: AVI ///СОВМЕСТИМО С БЫТОВЫМИ ПЛЕЕРАМИ///→ //SAMPLE//
    Видео: 704x400 (1.76:1), 24.000 fps, XviD build 66 ~1766 kbps avg, 0.26 bit/pixel
    Аудио#1: 48.0 kHz, AC3 Dolby Digital, 3/2 (L,C,R,l,r) + LFE ch, ~448 kbps | MVO
    Аудио#2: 48.0 kHz, AC3 Dolby Digital, 3/2 (L,C,R,l,r) + LFE ch, ~448 kbps | ENG отдельно
    Размер: 1498.03 Mb (1/3 DVDR)
    --НЕ ПЕРЕЗАЛИВАТЬ НА ДРУГИЕ РЕСУРСЫ РАЗДАЧУ БЕЗ СОГЛАСОВАНИЯ С АВТОРОМ!-
    -

    MediaInfo

    Общее
    Полное имя : D:\Фильмы\Smitty.2012.BD-Rip.XviD.1,46Gb.AC3\Smitty.2012.BD-Rip.XviD.1,46Gb.AC3.avi
    Формат : AVI
    Формат/Информация : Audio Video Interleave
    Размер файла : 1,46 Гбайт
    Продолжительность : 1 ч. 34 м.
    Общий поток : 2224 Кбит/сек
    Название фильма : Smitty.2012
    Режиссёр : David M. Evans
    Программа кодирования : VirtualDubMod 1.5.10.3 | www.virtualdub-fr.org || (build 2550/release)
    Правообладатель : perectracker.org
    Примечание : B.A.T.U.S.A.Y.
    Видео
    Идентификатор : 0
    Формат : MPEG-4 Visual
    Профиль формата : Advanced Simple@L5
    Параметр BVOP формата : 1
    Параметр QPel формата : Нет
    Параметр GMC формата : Без точки перехода
    Параметр матрицы формата : Выборочная
    Идентификатор кодека : XVID
    Идентификатор кодека/Подсказка : XviD
    Продолжительность : 1 ч. 34 м.
    Битрейт : 1766 Кбит/сек
    Ширина : 704 пикселя
    Высота : 400 пикселей
    Соотношение сторон : 16:9
    Частота кадров : 24,000 кадра/сек
    Цветовое пространство : YUV
    Субдискретизация насыщенности : 4:2:0
    Битовая глубина : 8 бит
    Тип развёртки : Прогрессивная
    Метод сжатия : С потерями
    Бит/(Пиксели*Кадры) : 0.261
    Размер потока : 1,16 Гбайт (79%)
    Библиотека кодирования : XviD 66
    Аудио
    Идентификатор : 1
    Формат : AC-3
    Формат/Информация : Audio Coding 3
    Расширение режима : CM (complete main)
    Параметр Endianness формата : Big
    Идентификатор кодека : 2000
    Продолжительность : 1 ч. 34 м.
    Вид битрейта : Постоянный
    Битрейт : 448 Кбит/сек
    Каналы : 6 каналов
    Расположение каналов : Front: L C R, Side: L R, LFE
    Частота : 48,0 КГц
    Битовая глубина : 16 бит
    Метод сжатия : С потерями
    Размер потока : 302 Мбайт (20%)
    Выравнивание : Разделение по промежуткам
    Продолжительность промежутка : 42 мс. (1,00 видеокадр)
    Время предзагрузки промежутка : 500 мс.

    Скриншот c названием фильма

    Скриншоты

    Цитата:
    Цитата:

    • Аудио#1 не подвергалось пересжатию
    Скачать .torrent

    Скачать торрент-файл бесплатно и на максимальной скорости!

    Как скачивать? · Что такое торрент? · Рейтинг и ограничения

    !ВНИМАНИЕ!
    Сайт не распространяет и не хранит электронные версии произведений, а занимается лишь лишь предоставлением доступа к создаваемому пользователями каталогу ссылок на торрент-файлы, которые содержат только списки хеш-сумм, убедительная просьба с жалобами обращаться напрямую к пользователю. Файлы для обмена на трекере предоставлены пользователями сайта, и администрация не несёт ответственности за их содержание. Просьба не заливать файлы, защищенные авторскими правами, а также файлы нелегального содержания!


    _________________
    [Профиль] [ЛС]
    Показать сообщения:    
    Ответить на тему

    Текущее время: Сегодня, в 15:02

    Часовой пояс: GMT + 2



    Вы не можете начинать темы
    Вы не можете отвечать на сообщения
    Вы не можете редактировать свои сообщения
    Вы не можете удалять свои сообщения
    Вы не можете голосовать в опросах
    Вы не можете прикреплять файлы к сообщениям
    Вы не можете скачивать файлы