BitTorrentTracker PerecTracker.org
BitTorrentTracker PerecTracker.org
    
Регистрация  ·  Вход
 
 · 
Забыли пароль?

  • Пробуждающая совесть / Skammerens datter (Кеннет Кайнц / Kenneth Kainz) [2015, Дания, фэнтези, WEB-DLRip] VO (Lord32x)

    Ответить на тему
     
    Автор Сообщение

    rechyn

    Создавать темы 28-Июл-2015 08:34

           

    [Цитировать]

    Пробуждающая совесть / Skammerens datter
    Страна: Дания
    Жанр: фэнтези
    Год выпуска: 2015
    Продолжительность: 01:32:14
    Перевод: Одноголосый закадровый (Lord32x)
    Cубтитры: нет
    Режиссер: Кеннет Кайнц / Kenneth Kainz
    В ролях: Якоб Офтебро, Эллан Хайд, Мария Бонневи, Сёрен Маллинг, Олаф Йоханнессен
    Описание: Дина унаследовала от матери сверхъестественный дар. Она может заглядывать в души людей, заставляя тех испытывать стыд за свои поступки. Когда единственного наследника престола обвинили в убийстве венценосной семьи, мать девочки обманом завлекают в замок, чтобы заставить обвиняемого сознаться в преступлении. Та отказывается использовать свою силу во зло и попадает в заточение. Теперь Дине предстоит раскрыть правду, попав в эпицентр борьбы за власть и подвергнув опасности собственную жизнь.
    Доп. информация: Экранизация первого романа из серии сказок Лине Кобербель "Дина. Чудесный дар".
    На родине фильм получил возрастное ограничение "12+"
    Фильм содержит сцены, содержание которых может быть не подходящим для маленьких/впечатлительных детей.
    Сэмпл
    Первод: М.Васильев
    Озвучка: Lord32x
    Релиз состоялся благодаря ВК группе СКАНДИНАВСКИЙ КАЛЕЙДОСКОП
    IMDB
    Качество видео: WEB-DLRip
    Формат видео: AVI
    Видео: 1879 Kbps, 720x304 (2.35:1) 25 000 fps, MPEG 4 XviD
    Аудио: 384 Kbps, 48.0 KHz, 16 bits, 3 ch, AC 3

    MediaInfo

    General
    Complete name : C:\Users\Владелец\Downloads\Skammerens.Datter.2015.WEB-DLRip.1500MB.avi
    Format : AVI
    Format/Info : Audio Video Interleave
    File size : 1.46 GiB
    Duration : 1h 32mn
    Overall bit rate : 2 273 Kbps
    Writing application : VirtualDubMod 1.5.10.3 | | (build 2550/release)
    Writing library : VirtualDubMod build 2550/release
    Video
    ID : 0
    Format : MPEG-4 Visual
    Format profile : Advanced Simple@L5
    Format settings, BVOP : 1
    Format settings, QPel : No
    Format settings, GMC : No warppoints
    Format settings, Matrix : Default (H.263)
    Codec ID : XVID
    Codec ID/Hint : XviD
    Duration : 1h 32mn
    Bit rate : 1 879 Kbps
    Width : 720 pixels
    Height : 304 pixels
    Display aspect ratio : 2.35:1
    Frame rate : 25.000 fps
    Color space : YUV
    Chroma subsampling : 4:2:0
    Bit depth : 8 bits
    Scan type : Progressive
    Compression mode : Lossy
    Bits/(Pixel*Frame) : 0.343
    Stream size : 1.21 GiB (83%)
    Writing library : XviD 1.2.1 (UTC 2008-12-04)
    Audio
    ID : 1
    Format : AC-3
    Format/Info : Audio Coding 3
    Mode extension : CM (complete main)
    Format settings, Endianness : Big
    Codec ID : 2000
    Duration : 1h 32mn
    Bit rate mode : Constant
    Bit rate : 384 Kbps
    Channel(s) : 6 channels
    Channel positions : Front: L C R, Side: L R, LFE
    Sampling rate : 48.0 KHz
    Bit depth : 16 bits
    Compression mode : Lossy
    Stream size : 253 MiB (17%)
    Alignment : Split accross interleaves
    Interleave, duration : 40 ms (1.00 video frame)
    Interleave, preload duration : 500 ms

    Скриншот c названием фильма

    Скриншоты



    Скачать .torrent

    Скачать торрент-файл бесплатно и на максимальной скорости!

    Как скачивать? · Что такое торрент? · Рейтинг и ограничения

    !ВНИМАНИЕ!
    Сайт не распространяет и не хранит электронные версии произведений, а занимается лишь лишь предоставлением доступа к создаваемому пользователями каталогу ссылок на торрент-файлы, которые содержат только списки хеш-сумм, убедительная просьба с жалобами обращаться напрямую к пользователю. Файлы для обмена на трекере предоставлены пользователями сайта, и администрация не несёт ответственности за их содержание. Просьба не заливать файлы, защищенные авторскими правами, а также файлы нелегального содержания!


    _________________
    [Профиль] [ЛС]
    Показать сообщения:    
    Ответить на тему

    Текущее время: Сегодня, в 12:22

    Часовой пояс: GMT + 2



    Вы не можете начинать темы
    Вы не можете отвечать на сообщения
    Вы не можете редактировать свои сообщения
    Вы не можете удалять свои сообщения
    Вы не можете голосовать в опросах
    Вы не можете прикреплять файлы к сообщениям
    Вы не можете скачивать файлы