BitTorrentTracker PerecTracker.org
BitTorrentTracker PerecTracker.org
    
Регистрация  ·  Вход
 
 · 
Забыли пароль?

  • Код доступа «Кейптаун» / Safe House (Дэниэл Эспиноза / Daniel Espinosa) [2012, США, ЮАР, боевик, триллер, криминал, детектив, HDTVRip] Dub

    Ответить на тему
     
    Автор Сообщение

    Light

    Создавать темы 28-Июл-2015 08:34

           

    [Цитировать]

    Код доступа «Кейптаун» / Safe House
    Страна: США, ЮАР
    Жанр: боевик, триллер, криминал, детектив
    Год выпуска: 2012
    Продолжительность: 01:46:37
    Перевод: Профессиональный (дублированный)
    Cубтитры: нет
    Оригинальная аудиодорожка: нет
    Режиссер: Дэниэл Эспиноза / Daniel Espinosa
    В ролях: Дензел Вашингтон (Tobin Frost), Райан Рейнольдс (Matt Weston), Вера Фармига (Catherine Linklater), Брендан Глисон (David Barlow), Сэм Шепард (Harlan Whitford), Рубен Бладес (Carlos Villar), Нора Арнезедер (Ana Moreau), Роберт Патрик (Daniel Kiefer), Лиам Каннингэм (Alec Wade), Юэль Киннаман (Keller), Фарес Фарес (Vargas), Дженна Довер (CIA Analyst)
    Описание: Выпускник Гарварда Мэтт мечтает со своей невестой переехать в Париж. Но она не знает, что уже год он работает на ЦРУ. Легендарный агент ЦРУ Фрост владеет секретной информацией. Но он вышел из-под контроля, и теперь его главное правило: «не доверяй никому — тебя предаст каждый». Их пути пересекутся в одном из красивейших городов мира — Кейптауне, где каждый должен будет сделать свой выбор.
    Доп. информация: Рип с канала Первый HD. Из видеоряда удален логотип канала. HDTV и BD имеют разное наполнение кадра http://screenshotcomparison.com/comparison/136710
    Сэмпл: http://multi-up.com/1060318
    Качество видео: HDTVRip
    Формат видео: AVI
    Видео: MPEG4, XviD, 720x400 (16:9), 25.000 fps, 1 748 Kbps (0.243 bit/pixel)
    Аудио: AC-3, 48.0 KHz, 2 ch, 192 Kbps, CBR

    MediaInfo

    Общее
    Полное имя : K:\Код доступа «Кейптаун».avi
    Формат : AVI
    Формат/Информация : Audio Video Interleave
    Размер файла : 1,45 Гбайт
    Продолжительность : 1 ч. 46 м.
    Общий поток : 1950 Кбит/сек
    Название фильма : Код доступа «Кейптаун» / Safe House (2012)
    Программа кодирования : VirtualDubMod 1.5.10.2 (build 2540/release)
    Библиотека кодирования : VirtualDubMod build 2540/release
    Авторское право : miha2154
    Видео
    Идентификатор : 0
    Формат : MPEG-4 Visual
    Профиль формата : Advanced Simple@L5
    Параметр BVOP формата : 1
    Параметр QPel формата : Нет
    Параметр GMC формата : Без точки перехода
    Параметр матрицы формата : Выборочная
    Идентификатор кодека : XVID
    Идентификатор кодека/Подсказка : XviD
    Продолжительность : 1 ч. 46 м.
    Битрейт : 1748 Кбит/сек
    Ширина : 720 пикселей
    Высота : 400 пикселей
    Соотношение сторон : 16:9
    Частота кадров : 25,000 кадров/сек
    Цветовое пространство : YUV
    Субдискретизация насыщенности : 4:2:0
    Битовая глубина : 8 бит
    Тип развёртки : Прогрессивная
    Метод сжатия : С потерями
    Бит/(Пиксели*Кадры) : 0.243
    Размер потока : 1,30 Гбайт (90%)
    Библиотека кодирования : XviD 65
    Аудио
    Идентификатор : 1
    Формат : AC-3
    Формат/Информация : Audio Coding 3
    Расширение режима : CM (complete main)
    Параметр Endianness формата : Big
    Идентификатор кодека : 2000
    Продолжительность : 1 ч. 46 м.
    Вид битрейта : Постоянный
    Битрейт : 192 Кбит/сек
    Каналы : 2 канала
    Расположение каналов : Front: L R
    Частота : 48,0 КГц
    Метод сжатия : С потерями
    Размер потока : 146 Мбайт (10%)
    Выравнивание : Разделение по промежуткам
    Продолжительность промежутка : 40 мс. (1,00 видеокадр)
    Время предзагрузки промежутка : 500 мс.
    Заголовок : Профессиональный (полное дублирование)

    Скриншоты


    Скачать .torrent

    Скачать торрент-файл бесплатно и на максимальной скорости!

    Как скачивать? · Что такое торрент? · Рейтинг и ограничения

    !ВНИМАНИЕ!
    Сайт не распространяет и не хранит электронные версии произведений, а занимается лишь лишь предоставлением доступа к создаваемому пользователями каталогу ссылок на торрент-файлы, которые содержат только списки хеш-сумм, убедительная просьба с жалобами обращаться напрямую к пользователю. Файлы для обмена на трекере предоставлены пользователями сайта, и администрация не несёт ответственности за их содержание. Просьба не заливать файлы, защищенные авторскими правами, а также файлы нелегального содержания!


    _________________
    [Профиль] [ЛС]
    Показать сообщения:    
    Ответить на тему

    Текущее время: Сегодня, в 16:23

    Часовой пояс: GMT + 2



    Вы не можете начинать темы
    Вы не можете отвечать на сообщения
    Вы не можете редактировать свои сообщения
    Вы не можете удалять свои сообщения
    Вы не можете голосовать в опросах
    Вы не можете прикреплять файлы к сообщениям
    Вы не можете скачивать файлы